<?xml version="1.0" standalone="no"?>
<!DOCTYPE svg PUBLIC "-//W3C//DTD SVG 1.1//EN" "http://www.w3.org/Graphics/SVG/1.1/DTD/svg11.dtd" >
<svg>
<metadata>
Created by FontForge 20120731 at Tue Apr 29 20:01:11 2014

Copyright (c) 2011 by Aurele Sack. www.lineto.com. All rights reserved.
</metadata>
<defs>
<font id="lineto-brown-bold" horiz-adv-x="590" >
  <font-face 
    font-family="Brown Bold"
    font-weight="700"
    font-stretch="normal"
    units-per-em="1000"
    panose-1="2 0 0 0 0 0 0 0 0 0"
    ascent="750"
    descent="-250"
    x-height="485"
    cap-height="700"
    bbox="-105 -250 1405 960"
    underline-thickness="80"
    underline-position="-20"
    unicode-range="U+0020-FB04"
  />
<missing-glyph horiz-adv-x="570" 
d="M75 700h420v-700h-420v700zM195 115h180v470h-180v-470z" />
    <glyph glyph-name="f_f_l" unicode="ffl" horiz-adv-x="1090" 
d="M775 600q-8 2 -19 3.5t-20 1.5q-49 0 -73 -28q-8 -11 -13 -27t-5 -50v-15h240v225h130v-710h-130v375h-240v-375h-130v375h-240v-375h-130v375h-125v110h125v20q0 59 13 96t39 62t63.5 41t87.5 16q20 0 38.5 -2t38.5 -7l-20 -111q-8 2 -19 3.5t-20 1.5q-49 0 -73 -28
q-8 -11 -13 -27t-5 -50v-15h240v20q0 59 13 96t39 62t63.5 41t87.5 16q20 0 38.5 -2t38.5 -7z" />
    <glyph glyph-name="f_f" unicode="ff" horiz-adv-x="830" 
d="M775 600q-8 2 -19 3.5t-20 1.5q-49 0 -73 -28q-8 -11 -13 -27t-5 -50v-15h150v-110h-150v-375h-130v375h-240v-375h-130v375h-125v110h125v20q0 59 13 96t39 62t63.5 41t87.5 16q20 0 38.5 -2t38.5 -7l-20 -111q-8 2 -19 3.5t-20 1.5q-49 0 -73 -28q-8 -11 -13 -27
t-5 -50v-15h240v20q0 59 13 96t39 62t63.5 41t87.5 16q20 0 38.5 -2t38.5 -7z" />
    <glyph glyph-name="f_f_i" unicode="ffi" horiz-adv-x="1090" 
d="M775 600q-8 2 -19 3.5t-20 1.5q-49 0 -73 -28q-8 -11 -13 -27t-5 -50v-15h370v-485h-130v375h-240v-375h-130v375h-240v-375h-130v375h-125v110h125v20q0 59 13 96t39 62t63.5 41t87.5 16q20 0 38.5 -2t38.5 -7l-20 -111q-8 2 -19 3.5t-20 1.5q-49 0 -73 -28
q-8 -11 -13 -27t-5 -50v-15h240v20q0 59 13 96t39 62t63.5 41t87.5 16q20 0 38.5 -2t38.5 -7zM865 657q0 35 25 59t60 24t60 -24t25 -59t-25 -59t-60 -24t-60 24t-25 59z" />
    <glyph glyph-name="f_i" unicode="fi" horiz-adv-x="720" 
d="M405 600q-8 2 -19 3.5t-20 1.5q-49 0 -73 -28q-8 -11 -13 -27t-5 -50v-15h370v-485h-130v375h-240v-375h-130v375h-125v110h125v20q0 59 13 96t39 62t63.5 41t87.5 16q20 0 38.5 -2t38.5 -7zM495 657q0 35 25 59t60 24t60 -24t25 -59t-25 -59t-60 -24t-60 24t-25 59z" />
    <glyph glyph-name="f_l" unicode="fl" horiz-adv-x="720" 
d="M405 600q-8 2 -19 3.5t-20 1.5q-49 0 -73 -28q-8 -11 -13 -27t-5 -50v-15h240v225h130v-710h-130v375h-240v-375h-130v375h-125v110h125v20q0 59 13 96t39 62t63.5 41t87.5 16q20 0 38.5 -2t38.5 -7z" />
    <glyph glyph-name=".notdef" horiz-adv-x="570" 
d="M75 700h420v-700h-420v700zM195 115h180v470h-180v-470z" />
    <glyph glyph-name=".null" horiz-adv-x="0" 
 />
    <glyph glyph-name="uni000D" horiz-adv-x="270" 
 />
    <glyph glyph-name="space" unicode=" " horiz-adv-x="270" 
 />
    <glyph glyph-name="exclam" unicode="!" horiz-adv-x="375" 
d="M232 230h-90l-20 255v215h130v-215zM100 77q0 37 25 62.5t62 25.5t62.5 -25.5t25.5 -62.5t-25.5 -62t-62.5 -25t-62 25t-25 62z" />
    <glyph glyph-name="quotedbl" unicode="&#x22;" horiz-adv-x="480" 
d="M180 445h-90l-20 255h130zM390 445h-90l-20 255h130z" />
    <glyph glyph-name="numbersign" unicode="#" horiz-adv-x="733" 
d="M288 295h126l30 110h-126zM234 515l49 185h114l-49 -185h126l49 185h114l-49 -185h110v-110h-139l-31 -110h110l4 -110h-143l-49 -185h-114l49 185h-126l-49 -185h-114l49 185h-110v110h139l30 110h-110v110h140z" />
    <glyph glyph-name="dollar" unicode="$" horiz-adv-x="535" 
d="M98 187q30 -33 73.5 -55t91.5 -22q45 0 73.5 25t28.5 63q0 34 -22 54.5t-55 36.5t-72.5 30t-74.5 35q-41 24 -70 62t-29 97q0 36 12.5 66.5t33.5 54.5t49.5 40.5t60.5 25.5v115h120v-108q41 -5 80 -19.5t78 -43.5l-70 -100q-21 20 -53.5 33t-67.5 13q-19 0 -38.5 -4.5
t-35 -13.5t-25 -23.5t-9.5 -34.5q0 -28 24 -46t60 -33t77.5 -31.5t77.5 -42t60 -64t24 -97.5q0 -40 -14 -74t-39 -60.5t-58 -44.5t-71 -25v-111h-120v112q-52 10 -99 35t-89 63z" />
    <glyph glyph-name="percent" unicode="%" horiz-adv-x="965" 
d="M310 525q0 31 -19 53t-51 22t-51 -22t-19 -53t19 -53t51 -22t51 22t19 53zM50 525q0 38 14.5 72t40 59t60 39.5t75.5 14.5q40 0 75 -14.5t60.5 -39.5t40 -59t14.5 -72t-14.5 -72t-40 -59t-60.5 -39.5t-75 -14.5q-41 0 -75.5 14.5t-60 39.5t-40 59t-14.5 72zM795 175
q0 31 -19 53t-51 22t-51 -22t-19 -53t19 -53t51 -22t51 22t19 53zM535 175q0 38 14.5 72t40 59t60 39.5t75.5 14.5q40 0 75 -14.5t60.5 -39.5t40 -59t14.5 -72t-14.5 -72t-40 -59t-60.5 -39.5t-75 -14.5q-41 0 -75.5 14.5t-60 39.5t-40 59t-14.5 72zM224 0l409 700h111
l-409 -700h-111z" />
    <glyph glyph-name="ampersand" unicode="&#x26;" horiz-adv-x="660" 
d="M587 451q3 -9 6.5 -24.5t6.5 -34t5.5 -39.5t2.5 -42q0 -51 -10.5 -96.5t-32.5 -82.5l115 -132h-162l-37 42q-38 -26 -87.5 -39t-106.5 -13q-50 0 -97 16t-84 46t-59 72t-22 95q0 35 10 65t27.5 55.5t40 46.5t47.5 38q-26 34 -40.5 66.5t-14.5 67.5q0 32 13.5 60t37 48.5
t54 32t63.5 11.5q36 0 67 -12.5t53.5 -34.5t35 -52t12.5 -65q0 -52 -27.5 -89t-64.5 -66l134 -154q5 17 7.5 36t2.5 39q0 32 -5 59.5t-12 50.5zM155 219q0 -22 9.5 -41.5t27.5 -34.5t43.5 -24t57.5 -9q61 0 105 27l-167 193q-30 -17 -53 -43t-23 -68zM301 547q0 17 -10.5 30
t-27.5 13t-27.5 -13t-10.5 -30t10 -34t24 -32q18 16 30 32t12 34z" />
    <glyph glyph-name="quotesingle" unicode="'" horiz-adv-x="270" 
d="M180 445h-90l-20 255h130z" />
    <glyph glyph-name="parenleft" unicode="(" horiz-adv-x="455" 
d="M260 250q0 -108 31 -209t88 -183l-97 -68q-69 98 -105.5 215t-36.5 245t36.5 245t105.5 215l97 -68q-57 -82 -88 -183t-31 -209z" />
    <glyph glyph-name="parenright" unicode=")" horiz-adv-x="455" 
d="M195 250q0 108 -31 209t-88 183l97 68q69 -98 105.5 -215t36.5 -245t-36.5 -245t-105.5 -215l-97 68q57 82 88 183t31 209z" />
    <glyph glyph-name="asterisk" unicode="*" horiz-adv-x="516" 
d="M85 334l85 117l-138 45l34 103l137 -44v145h110v-145l137 45l34 -104l-138 -45l85 -117l-88 -64l-85 117l-85 -117z" />
    <glyph glyph-name="plus" unicode="+" horiz-adv-x="550" 
d="M220 335v175h110v-175h175v-110h-175v-175h-110v175h-175v110h175z" />
    <glyph glyph-name="comma" unicode="," horiz-adv-x="375" 
d="M265 155l-120 -295h-95l75 295h140z" />
    <glyph glyph-name="hyphen" unicode="-" horiz-adv-x="470" 
d="M400 315v-110h-330v110h330z" />
    <glyph glyph-name="period" unicode="." horiz-adv-x="375" 
d="M110 77q0 37 25 62.5t62 25.5t62.5 -25.5t25.5 -62.5t-25.5 -62t-62.5 -25t-62 25t-25 62z" />
    <glyph glyph-name="slash" unicode="/" horiz-adv-x="455" 
d="M5 0l325 700h120l-325 -700h-120z" />
    <glyph glyph-name="zero" unicode="0" horiz-adv-x="600" 
d="M410 350q0 49 -6 93t-19 76.5t-34 51.5t-51 19t-51 -19t-34 -51.5t-19 -76.5t-6 -93q0 -50 6 -93.5t19 -76t34 -51.5t51 -19t51 19t34 51.5t19 76t6 93.5zM55 350q0 75 13 140.5t42.5 114t76 77t113.5 28.5t113.5 -28.5t76 -77t42.5 -114t13 -140.5t-13 -140.5
t-42.5 -114t-76 -77t-113.5 -28.5t-113.5 28.5t-76 77t-42.5 114t-13 140.5z" />
    <glyph glyph-name="one" unicode="1" horiz-adv-x="425" 
d="M55 600l170 100h95v-700h-135v544l-130 -72v128z" />
    <glyph glyph-name="two" unicode="2" horiz-adv-x="545" 
d="M45 548q11 36 32.5 66t50.5 51t64 33t74 12q45 0 85.5 -16t71.5 -44.5t49 -68.5t18 -87q0 -64 -27.5 -112.5t-62.5 -88.5l-149 -173h244v-120h-455v80l246 279q41 46 55 78t14 59q0 18 -7 35t-19 30t-28.5 21t-36.5 8q-35 0 -59.5 -22t-35.5 -57z" />
    <glyph glyph-name="three" unicode="3" horiz-adv-x="573" 
d="M122 180q22 -31 56 -50.5t74 -19.5q25 0 48.5 9.5t42 26t29.5 40t11 51.5q0 27 -10.5 50.5t-29 41t-44 27t-54.5 9.5q-44 0 -84 -20v80l131 155h-234v120h425v-80l-127 -156q72 -28 117 -87.5t45 -139.5q0 -56 -20.5 -101.5t-55.5 -77.5t-83 -50t-102 -18
q-66 0 -125.5 28t-106.5 81z" />
    <glyph glyph-name="four" unicode="4" horiz-adv-x="615" 
d="M480 700v-420h115v-120h-115v-160h-135v160h-325v80l365 460h95zM345 280v164l-131 -164h131z" />
    <glyph glyph-name="five" unicode="5" horiz-adv-x="565" 
d="M132 166q23 -24 54 -40t66 -16q49 0 84 32q18 17 28.5 40t10.5 50q0 29 -11.5 53.5t-31.5 41.5q-17 14 -38.5 21t-46.5 7q-26 0 -53 -9.5t-50 -28.5l-84 12l45 371h370v-120h-260l-11 -110q23 5 54 5q41 0 83.5 -11.5t79.5 -41.5q42 -33 65.5 -83t23.5 -107
q0 -52 -20.5 -96t-55.5 -76.5t-82 -51t-100 -18.5q-122 0 -212 90z" />
    <glyph glyph-name="six" unicode="6" 
d="M428 700l-132 -223h9q50 0 94.5 -18t78 -50t53 -76.5t19.5 -96.5q0 -51 -20 -96t-53.5 -78t-79 -52.5t-96.5 -19.5q-49 0 -95 17t-82 48t-57.5 75t-21.5 99q0 52 20.5 99t48.5 94l165 278h149zM217 340q-14 -20 -28 -48t-14 -63q0 -25 10 -46.5t26.5 -37.5t39 -25.5
t48.5 -9.5t47.5 9.5t37.5 26t24.5 39t8.5 47.5t-9 47.5t-25.5 40t-39.5 27.5t-51 10q-38 0 -75 -17z" />
    <glyph glyph-name="seven" unicode="7" horiz-adv-x="535" 
d="M45 700h460v-80l-301 -620h-143l283 580h-299v120z" />
    <glyph glyph-name="eight" unicode="8" horiz-adv-x="600" 
d="M300 445q32 0 51 21t19 51t-19 51.5t-51 21.5t-51 -21.5t-19 -51.5t19 -51t51 -21zM300 110q25 0 46 8.5t36.5 22.5t24 33.5t8.5 42.5q0 22 -8.5 42t-24 34.5t-36.5 23t-46 8.5t-46 -8.5t-36.5 -23t-24 -34.5t-8.5 -42q0 -23 8.5 -42.5t24 -33.5t36.5 -22.5t46 -8.5z
M300 -10q-53 0 -98.5 17.5t-79 48.5t-53 72t-19.5 89q0 62 28.5 105t72.5 72q-23 20 -39.5 50t-16.5 73q0 40 15.5 75t43 61.5t65 41.5t81.5 15t81.5 -15t65 -41.5t43 -61.5t15.5 -75q0 -43 -16.5 -73t-39.5 -50q44 -29 72.5 -72t28.5 -105q0 -48 -19.5 -89t-53 -72
t-79.5 -48.5t-98 -17.5z" />
    <glyph glyph-name="nine" unicode="9" 
d="M162 0l132 223h-9q-50 0 -94.5 18t-78 50t-53 76t-19.5 97q0 51 20 96t53.5 78t79 52.5t96.5 19.5q49 0 95 -17t82 -48t57.5 -75t21.5 -99q0 -52 -20.5 -99t-48.5 -94l-165 -278h-149zM373 360q14 20 28 48t14 63q0 25 -10 46.5t-26.5 37.5t-39.5 25.5t-48 9.5
q-26 0 -47.5 -9.5t-37.5 -26t-24.5 -39t-8.5 -47.5t9 -47.5t25.5 -40t39.5 -27.5t51 -10q38 0 75 17z" />
    <glyph glyph-name="colon" unicode=":" horiz-adv-x="375" 
d="M110 409q0 37 25 61.5t62 24.5t62.5 -24.5t25.5 -61.5t-25.5 -61t-62.5 -24t-62 24t-25 61zM110 75q0 37 25 61.5t62 24.5t62.5 -24.5t25.5 -61.5t-25.5 -61t-62.5 -24t-62 24t-25 61z" />
    <glyph glyph-name="semicolon" unicode=";" horiz-adv-x="375" 
d="M265 155l-120 -295h-95l75 295h140zM105 409q0 37 25 61.5t62 24.5t62.5 -24.5t25.5 -61.5t-25.5 -61t-62.5 -24t-62 24t-25 61z" />
    <glyph glyph-name="less" unicode="&#x3c;" horiz-adv-x="550" 
d="M505 164v-119l-460 200v70l460 200v-119l-266 -116z" />
    <glyph glyph-name="equal" unicode="=" horiz-adv-x="550" 
d="M505 230v-110h-460v110h460zM505 440v-110h-460v110h460z" />
    <glyph glyph-name="greater" unicode="&#x3e;" horiz-adv-x="550" 
d="M311 280l-266 116v119l460 -200v-70l-460 -200v119z" />
    <glyph glyph-name="question" unicode="?" horiz-adv-x="500" 
d="M161 75q0 37 25 61.5t62 24.5t62.5 -24.5t25.5 -61.5t-25.5 -61t-62.5 -24t-62 24t-25 61zM60 562q7 30 23.5 56.5t41.5 47t58.5 32.5t74.5 12q42 0 79 -13.5t64.5 -37.5t43 -57t15.5 -72q0 -55 -25 -90.5t-55 -60t-55 -44t-25 -41.5q0 -13 5 -21t12 -15l-101 -70
q-4 5 -12 14.5t-15.5 23.5t-13 32t-5.5 39q0 32 12 56.5t29.5 43.5t38.5 34.5t38.5 30.5t29.5 30.5t12 35.5q0 28 -20 45t-52 17q-33 0 -51.5 -19.5t-20.5 -41.5z" />
    <glyph glyph-name="at" unicode="@" horiz-adv-x="1000" 
d="M382 250q0 -24 8.5 -44.5t23.5 -36.5t36 -25t47 -9q29 0 53.5 11t37.5 27q-1 10 -1.5 20.5t-0.5 23.5v112q-14 15 -37.5 25.5t-51.5 10.5q-26 0 -47 -9t-36 -25t-23.5 -36.5t-8.5 -44.5zM745 35q-35 0 -65.5 14.5t-52.5 38.5q-18 -17 -52 -35t-85 -18q-35 0 -73.5 13.5
t-70.5 40.5t-53 67.5t-21 93.5q0 51 19.5 91t50.5 67.5t67.5 42t71.5 14.5q27 0 55 -7t54 -24v21h106v-241q0 -23 2.5 -35t7.5 -21q6 -10 16 -16.5t26 -6.5q22 0 36.5 14t22 35t10.5 45.5t3 45.5q0 67 -26 123t-69.5 96.5t-101 63t-119.5 22.5q-67 0 -126 -25.5t-103 -70.5
t-69.5 -105t-25.5 -129q0 -68 25 -128t68.5 -105t102 -71t124.5 -26q56 0 106.5 16.5t91.5 48.5l62 -91q-51 -38 -115 -61t-138 -23q-92 0 -171.5 34.5t-138.5 94t-93 139.5t-34 172q0 91 33.5 171t91.5 140t137 94.5t171 34.5q85 0 162 -31t136 -86.5t94 -131.5t35 -166
q0 -48 -11 -91.5t-33.5 -76.5t-57.5 -52.5t-83 -19.5z" />
    <glyph glyph-name="A" unicode="A" horiz-adv-x="695" 
d="M0 0l300 700h95l300 -700h-141l-66 155h-281l-66 -155h-141zM258 275h178l-89 207z" />
    <glyph glyph-name="B" unicode="B" horiz-adv-x="625" 
d="M318 700q60 0 95.5 -13t61.5 -36q29 -26 47 -62t18 -79q0 -35 -14 -67t-31 -50q47 -23 76 -71.5t29 -107.5q0 -45 -17.5 -83.5t-46.5 -67.5t-72 -46t-111 -17h-273v700h238zM215 430h95q32 0 48 7t27 18q9 10 14.5 23t5.5 27t-5.5 27t-14.5 23q-11 11 -27 18t-48 7h-95
v-150zM350 120q35 0 56 8.5t34 22.5q25 27 25 64t-25 64q-13 14 -34 22.5t-56 8.5h-135v-190h135z" />
    <glyph glyph-name="C" unicode="C" horiz-adv-x="715" 
d="M398 590q-50 0 -92.5 -19t-74 -51.5t-49 -76t-17.5 -93.5q0 -51 18.5 -95t50.5 -76t75.5 -50.5t94.5 -18.5q69 0 118 28.5t80 68.5l93 -83q-47 -60 -122 -97t-172 -37q-82 0 -150 28t-117 76.5t-76.5 114.5t-27.5 141t27 141t75.5 114.5t116.5 76.5t150 28q78 0 143 -27
t113 -73l-87 -92q-32 32 -75 52t-95 20z" />
    <glyph glyph-name="D" unicode="D" horiz-adv-x="710" 
d="M545 350q0 44 -13.5 83t-37.5 69q-29 37 -72.5 57.5t-106.5 20.5h-100v-460h100q63 0 106.5 20.5t72.5 57.5q24 30 37.5 69t13.5 83zM300 700q84 0 141 -17t100 -49q65 -48 102 -122t37 -162t-37 -162t-102 -122q-43 -32 -100 -49t-141 -17h-220v700h220z" />
    <glyph glyph-name="E" unicode="E" horiz-adv-x="550" 
d="M215 580v-145h215v-120h-215v-195h295v-120h-430v700h420v-120h-285z" />
    <glyph glyph-name="F" unicode="F" horiz-adv-x="520" 
d="M215 580v-145h215v-120h-215v-315h-135v700h420v-120h-285z" />
    <glyph glyph-name="G" unicode="G" horiz-adv-x="755" 
d="M398 590q-50 0 -92.5 -19t-74 -51.5t-49 -76t-17.5 -93.5q0 -51 18.5 -95t50.5 -76t75.5 -50.5t94.5 -18.5q48 0 87 15t69 39v151h-180v120h315v-311q-47 -60 -122 -97t-172 -37q-82 0 -150 28t-117 76.5t-76.5 114.5t-27.5 141t27 141t75.5 114.5t116.5 76.5t150 28
q78 0 143 -27t113 -73l-87 -92q-32 32 -75 52t-95 20z" />
    <glyph glyph-name="H" unicode="H" horiz-adv-x="780" 
d="M565 315h-350v-315h-135v700h135v-265h350v265h135v-700h-135v315z" />
    <glyph glyph-name="I" unicode="I" horiz-adv-x="295" 
d="M80 700h135v-700h-135v700z" />
    <glyph glyph-name="J" unicode="J" horiz-adv-x="500" 
d="M425 220q0 -42 -5 -71.5t-17 -52.5q-27 -51 -78.5 -78.5t-112.5 -27.5q-69 0 -121 33t-76 90l116 58q8 -21 27.5 -41t54.5 -20q39 0 61 28q8 10 12 24.5t4 42.5v495h135v-480z" />
    <glyph glyph-name="K" unicode="K" horiz-adv-x="695" 
d="M215 344v-344h-135v700h135v-280l265 280h178l-308 -320l345 -380h-173z" />
    <glyph glyph-name="L" unicode="L" horiz-adv-x="535" 
d="M80 700h135v-580h295v-120h-430v700z" />
    <glyph glyph-name="M" unicode="M" horiz-adv-x="860" 
d="M430 281l255 419h95v-700h-135v390l-168 -275h-94l-168 275v-390h-135v700h95z" />
    <glyph glyph-name="N" unicode="N" horiz-adv-x="780" 
d="M80 700h95l390 -456v456h135v-700h-95l-390 456v-456h-135v700z" />
    <glyph glyph-name="O" unicode="O" horiz-adv-x="790" 
d="M165 350q0 -50 17.5 -93.5t48 -76t72.5 -51.5t92 -19q49 0 91.5 19t73 51.5t48 76t17.5 93.5q0 49 -17.5 93t-48 76.5t-73 51.5t-91.5 19q-50 0 -92 -19t-72.5 -51.5t-48 -76.5t-17.5 -93zM30 350q0 75 26.5 140.5t75 114t115.5 77t148 28.5t148 -28.5t115.5 -77t75 -114
t26.5 -140.5t-26.5 -140.5t-75 -114t-115.5 -77t-148 -28.5t-148 28.5t-115.5 77t-75 114t-26.5 140.5z" />
    <glyph glyph-name="P" unicode="P" horiz-adv-x="600" 
d="M215 285v-285h-135v700h263q68 0 110.5 -16t71.5 -47q26 -27 40.5 -65t14.5 -80t-14.5 -80t-40.5 -65q-29 -30 -71.5 -46t-110.5 -16h-128zM337 405q35 0 54 7.5t31 20.5q23 25 23 59q0 35 -23 60q-12 13 -31 20.5t-54 7.5h-122v-175h122z" />
    <glyph glyph-name="Q" unicode="Q" horiz-adv-x="800" 
d="M30 350q0 75 26.5 140.5t75 114t115.5 77t148 28.5t148 -28.5t115.5 -77t75 -114t26.5 -140.5q0 -63 -19.5 -120t-54.5 -103l114 -127h-153l-44 50q-44 -29 -96 -44.5t-112 -15.5q-81 0 -148 28.5t-115.5 77t-75 114t-26.5 140.5zM165 350q0 -50 17.5 -93.5t48 -76
t72.5 -51.5t92 -19q35 0 66 9.5t57 26.5l-152 172l85 74l144 -162q14 26 22 56.5t8 63.5q0 49 -17.5 93t-48 76.5t-73 51.5t-91.5 19q-50 0 -92 -19t-72.5 -51.5t-48 -76.5t-17.5 -93z" />
    <glyph glyph-name="R" unicode="R" horiz-adv-x="670" 
d="M215 310v-310h-135v700h255q54 0 90.5 -14t62.5 -38q29 -27 45.5 -64t16.5 -79t-16.5 -79t-45.5 -64q-30 -28 -70 -41l262 -321h-167l-249 310h-49zM327 430q29 0 44 5.5t24 15.5t14.5 24t5.5 29q0 16 -5.5 30t-14.5 24t-24 16t-44 6h-112v-150h112z" />
    <glyph glyph-name="S" unicode="S" horiz-adv-x="535" 
d="M98 187q30 -33 73.5 -55t91.5 -22q45 0 73.5 25t28.5 63q0 34 -22 54.5t-55 36.5t-72.5 30t-74.5 35q-41 24 -70 62t-29 97q0 47 20 83.5t52 62t73.5 38.5t85.5 13q54 0 103.5 -14.5t99.5 -51.5l-70 -100q-21 20 -53.5 33t-67.5 13q-19 0 -38.5 -4.5t-35 -13.5t-25 -23.5
t-9.5 -34.5q0 -28 24 -46t60 -33t77.5 -31.5t77.5 -42t60 -64t24 -97.5q0 -47 -19.5 -85.5t-52 -66t-75.5 -43t-90 -15.5q-71 0 -135 27.5t-118 77.5z" />
    <glyph glyph-name="T" unicode="T" horiz-adv-x="555" 
d="M530 700v-120h-185v-580h-135v580h-185v120h505z" />
    <glyph glyph-name="U" unicode="U" horiz-adv-x="750" 
d="M375 -10q-60 0 -114.5 18t-95.5 54q-44 39 -67 95.5t-23 137.5v405h135v-415q0 -48 12 -79t34 -51q47 -45 119 -45t119 45q22 20 34 51t12 79v415h135v-405q0 -81 -23 -137.5t-67 -95.5q-41 -36 -95.5 -54t-114.5 -18z" />
    <glyph glyph-name="V" unicode="V" horiz-adv-x="681" 
d="M10 700h139l191 -478l192 478h139l-283 -700h-95z" />
    <glyph glyph-name="W" unicode="W" horiz-adv-x="985" 
d="M10 700h136l145 -437l154 437h95l154 -437l145 437h136l-232 -700h-95l-156 443l-155 -443h-95z" />
    <glyph glyph-name="X" unicode="X" horiz-adv-x="680" 
d="M422 373l243 -373h-155l-170 266l-170 -266h-155l242 373l-212 327h155l140 -221l140 221h155z" />
    <glyph glyph-name="Y" unicode="Y" horiz-adv-x="625" 
d="M380 317v-317h-135v317l-240 383h154l154 -246l153 246h154z" />
    <glyph glyph-name="Z" unicode="Z" horiz-adv-x="615" 
d="M40 80l340 500h-310v120h490v-80l-341 -500h361v-120h-540v80z" />
    <glyph glyph-name="bracketleft" unicode="[" horiz-adv-x="455" 
d="M140 700h275v-115h-155v-670h155v-115h-275v900z" />
    <glyph glyph-name="backslash" unicode="\" horiz-adv-x="455" 
d="M125 700l325 -700h-120l-325 700h120z" />
    <glyph glyph-name="bracketright" unicode="]" horiz-adv-x="455" 
d="M315 -200h-275v115h155v670h-155v115h275v-900z" />
    <glyph glyph-name="asciicircum" unicode="^" horiz-adv-x="520" 
d="M215 700h90l185 -350h-124l-106 201l-106 -201h-124z" />
    <glyph glyph-name="underscore" unicode="_" horiz-adv-x="520" 
d="M505 0v-110h-490v110h490z" />
    <glyph glyph-name="grave" unicode="`" horiz-adv-x="350" 
d="M210 720l70 -160h-90l-120 160h140z" />
    <glyph glyph-name="a" unicode="a" horiz-adv-x="615" 
d="M410 315q-20 27 -51 43.5t-69 16.5q-29 0 -52 -11t-39 -29.5t-25 -42.5t-9 -50q0 -29 9.5 -53t27 -41.5t41 -27.5t50.5 -10q37 0 67.5 16.5t49.5 43.5v145zM540 0h-125v39q-30 -26 -64 -37.5t-71 -11.5q-54 0 -102.5 22t-80.5 60q-29 33 -45.5 76.5t-16.5 93.5
q0 54 18.5 100t51 80t75.5 53.5t93 19.5q42 0 77.5 -13t64.5 -36v39h125v-485z" />
    <glyph glyph-name="b" unicode="b" horiz-adv-x="615" 
d="M205 170q19 -27 49.5 -43.5t67.5 -16.5q27 0 50.5 10t41 27.5t27 41.5t9.5 53q0 26 -9 50t-25 42.5t-39.5 29.5t-51.5 11q-38 0 -69 -16.5t-51 -43.5v-145zM75 0v710h130v-260q57 45 137 45q49 0 92.5 -19.5t76 -53.5t51 -80t18.5 -100q0 -50 -16.5 -93.5t-45.5 -76.5
q-32 -38 -80.5 -60t-102.5 -22q-37 0 -71 11.5t-64 37.5v-39h-125z" />
    <glyph glyph-name="c" unicode="c" horiz-adv-x="540" 
d="M515 99q-43 -57 -97 -83t-123 -26q-56 0 -104 19.5t-82.5 54t-54 80t-19.5 98.5t20 99t55 80.5t82.5 54t103.5 19.5q63 0 116.5 -26.5t87.5 -70.5l-92 -81q-20 26 -48.5 42t-63.5 16q-28 0 -52 -10.5t-41.5 -28.5t-27.5 -42t-10 -52q0 -29 10 -53t27.5 -41.5t42 -27.5
t54.5 -10q40 0 70 20t46 44z" />
    <glyph glyph-name="d" unicode="d" horiz-adv-x="615" 
d="M410 315q-20 27 -51 43.5t-69 16.5q-29 0 -52 -11t-39 -29.5t-25 -42.5t-9 -50q0 -29 9.5 -53t27 -41.5t41 -27.5t50.5 -10q37 0 67.5 16.5t49.5 43.5v145zM415 0v39q-30 -26 -64 -37.5t-71 -11.5q-54 0 -102.5 22t-80.5 60q-29 33 -45.5 76.5t-16.5 93.5q0 54 18.5 100
t51 80t75.5 53.5t93 19.5q80 0 137 -45v260h130v-710h-125z" />
    <glyph glyph-name="e" unicode="e" horiz-adv-x="535" 
d="M488 77q-35 -42 -88.5 -64.5t-110.5 -22.5q-54 0 -100.5 18t-80.5 51t-53.5 79.5t-19.5 103.5q0 51 16.5 96.5t47.5 80.5t74.5 55.5t97.5 20.5q50 0 92 -20t72.5 -53.5t47.5 -78.5t17 -96q0 -21 -3 -37h-336q3 -26 14 -47t28.5 -36t40 -23.5t48.5 -8.5q42 0 73.5 18.5
t48.5 37.5zM367 305q-2 16 -9.5 31.5t-20 27.5t-29.5 19t-37 7q-41 0 -70 -26t-34 -59h200z" />
    <glyph glyph-name="f" unicode="f" horiz-adv-x="460" 
d="M405 600q-8 2 -19 3.5t-20 1.5q-49 0 -73 -28q-8 -11 -13 -27t-5 -50v-15h150v-110h-150v-375h-130v375h-125v110h125v20q0 59 13 96t39 62t63.5 41t87.5 16q20 0 38.5 -2t38.5 -7z" />
    <glyph glyph-name="g" unicode="g" horiz-adv-x="615" 
d="M540 27q0 -66 -11 -107.5t-33 -72.5q-33 -46 -89 -71.5t-126 -25.5q-36 0 -70 7.5t-64 21t-55.5 32t-43.5 39.5l82 85q10 -11 23.5 -23t32 -22.5t42 -17.5t53.5 -7q32 0 57 9.5t42 29.5q15 17 22.5 42t7.5 72v16q-57 -44 -130 -44q-54 0 -103 22t-81 60q-29 33 -45 76.5
t-16 93.5q0 54 18.5 100t51 80t75.5 53.5t93 19.5q42 0 77.5 -13t64.5 -36v39h125v-458zM410 315q-20 27 -51 43.5t-69 16.5q-29 0 -52 -11t-39 -29.5t-25 -42.5t-9 -50q0 -29 9.5 -53t27 -41.5t41 -27.5t50.5 -10q37 0 67.5 16.5t49.5 43.5v145z" />
    <glyph glyph-name="h" unicode="h" horiz-adv-x="620" 
d="M205 0h-130v710h130v-260q27 21 60.5 33t71.5 12q51 0 94.5 -21t73.5 -57q24 -29 37 -68t13 -102v-247h-130v257q0 36 -7.5 56.5t-21.5 34.5q-27 27 -73 27q-21 0 -39.5 -6t-33.5 -15t-26.5 -19.5t-18.5 -19.5v-315z" />
    <glyph glyph-name="i" unicode="i" horiz-adv-x="280" 
d="M205 0h-130v485h130v-485zM55 657q0 35 25 59t60 24t60 -24t25 -59t-25 -59t-60 -24t-60 24t-25 59z" />
    <glyph glyph-name="j" unicode="j" horiz-adv-x="320" 
d="M0 -125q7 -2 18 -3.5t16 -1.5q41 0 62 22q10 11 14.5 29t4.5 54v510h130v-510q0 -55 -8 -90.5t-27 -62.5q-23 -32 -62.5 -52t-102.5 -20q-20 0 -37 2.5t-28 4.5zM95 657q0 35 25 59t60 24t60 -24t25 -59t-25 -59t-60 -24t-60 24t-25 59z" />
    <glyph glyph-name="k" unicode="k" horiz-adv-x="595" 
d="M318 267l267 -267h-175l-205 210v-210h-130v710h130v-382l167 157h183z" />
    <glyph glyph-name="l" unicode="l" horiz-adv-x="280" 
d="M205 0h-130v710h130v-710z" />
    <glyph glyph-name="m" unicode="m" horiz-adv-x="950" 
d="M75 0v485h125v-39q29 26 62.5 37.5t68.5 11.5q50 0 92 -20.5t71 -55.5q29 31 73.5 53.5t98.5 22.5q51 0 96 -21t74 -57q23 -29 36 -67.5t13 -92.5v-257h-130v262q0 33 -6.5 51.5t-17.5 31.5q-15 17 -34.5 23.5t-38.5 6.5q-21 0 -39.5 -6.5t-33.5 -16t-26.5 -21
t-17.5 -20.5q2 -12 3 -25.5t1 -28.5v-257h-130v262q0 33 -6.5 51.5t-17.5 31.5q-15 17 -34.5 23.5t-38.5 6.5q-21 0 -38.5 -6t-32 -15t-25 -19.5t-17.5 -19.5v-315h-130z" />
    <glyph glyph-name="n" unicode="n" horiz-adv-x="620" 
d="M75 0v485h125v-39q28 23 62 36t75 13q51 0 94.5 -21t73.5 -57q24 -29 37 -68t13 -102v-247h-130v257q0 36 -7.5 56.5t-21.5 34.5q-27 27 -73 27q-21 0 -39.5 -6t-33.5 -15t-26.5 -19.5t-18.5 -19.5v-315h-130z" />
    <glyph glyph-name="o" unicode="o" horiz-adv-x="586" 
d="M35 242q0 52 19.5 98.5t54 80.5t82 54t102.5 20t102.5 -20t82 -54t54 -80.5t19.5 -98.5q0 -53 -19.5 -98.5t-54 -80t-82 -54t-102.5 -19.5t-102.5 19.5t-82 54t-54 80t-19.5 98.5zM165 242q0 -27 9.5 -51t26 -42t40 -28.5t52.5 -10.5q28 0 52 10.5t40.5 28.5t26 42
t9.5 51t-9.5 51.5t-26 42.5t-40.5 28.5t-52 10.5q-29 0 -52.5 -10.5t-40 -28.5t-26 -42.5t-9.5 -51.5z" />
    <glyph glyph-name="p" unicode="p" horiz-adv-x="615" 
d="M75 485h125v-39q29 23 64.5 36t77.5 13q49 0 92.5 -19.5t76 -53.5t51 -80t18.5 -100q0 -50 -16 -93.5t-45 -76.5q-32 -38 -81 -60t-103 -22q-73 0 -130 44v-274h-130v725zM205 170q19 -27 49.5 -43.5t67.5 -16.5q27 0 50.5 10t41 27.5t27 41.5t9.5 53q0 26 -9 50
t-25 42.5t-39.5 29.5t-51.5 11q-38 0 -69 -16.5t-51 -43.5v-145z" />
    <glyph glyph-name="q" unicode="q" horiz-adv-x="615" 
d="M540 -240h-130v274q-57 -44 -130 -44q-54 0 -103 22t-81 60q-29 33 -45 76.5t-16 93.5q0 54 18.5 100t51 80t75.5 53.5t93 19.5q42 0 77.5 -13t64.5 -36v39h125v-725zM410 315q-20 27 -51 43.5t-69 16.5q-29 0 -52 -11t-39 -29.5t-25 -42.5t-9 -50q0 -29 9.5 -53
t27 -41.5t41 -27.5t50.5 -10q37 0 67.5 16.5t49.5 43.5v145z" />
    <glyph glyph-name="r" unicode="r" horiz-adv-x="410" 
d="M370 370q-7 2 -20 3.5t-27 1.5q-21 0 -40 -7t-34.5 -17.5t-26.5 -22.5t-17 -23v-305h-130v485h125v-49q22 27 59 43t82 16q14 0 23.5 -1t20.5 -3z" />
    <glyph glyph-name="s" unicode="s" horiz-adv-x="460" 
d="M90 148q25 -23 60.5 -35.5t72.5 -12.5q26 0 44 11.5t18 29.5t-17.5 29.5t-43.5 21t-56.5 20t-56.5 27t-43.5 41.5t-17.5 64q0 35 15.5 63t41.5 47.5t59.5 30t69.5 10.5q24 0 48 -4t45.5 -11t40 -16t30.5 -18l-61 -94q-19 14 -43 23.5t-50 9.5q-27 0 -46.5 -10t-19.5 -29
q0 -16 17.5 -25.5t43.5 -18.5t56.5 -19.5t56.5 -28.5t43.5 -45t17.5 -69q0 -35 -16 -62.5t-42.5 -47t-61.5 -30t-73 -10.5q-51 0 -101.5 16.5t-93.5 48.5z" />
    <glyph glyph-name="t" unicode="t" horiz-adv-x="495" 
d="M440 0q-13 -5 -37.5 -7.5t-43.5 -2.5q-59 0 -101 18.5t-67 51.5q-19 25 -27.5 59t-8.5 86v170h-135v110h135v135h130v-135h160v-110h-160v-185q0 -23 4 -37t12 -24q10 -11 26 -17.5t40 -6.5q14 0 30 1.5t23 3.5z" />
    <glyph glyph-name="u" unicode="u" horiz-adv-x="610" 
d="M535 485v-485h-125v39q-29 -26 -62.5 -37.5t-68.5 -11.5q-51 0 -93.5 21.5t-71.5 56.5q-23 29 -36 67.5t-13 92.5v257h130v-262q0 -33 6.5 -51.5t17.5 -31.5q15 -17 34.5 -23.5t38.5 -6.5q21 0 38.5 6t32 15t25 19.5t17.5 19.5v315h130z" />
    <glyph glyph-name="v" unicode="v" horiz-adv-x="556" 
d="M278 189l133 296h135l-223 -485h-90l-223 485h135z" />
    <glyph glyph-name="w" unicode="w" horiz-adv-x="852" 
d="M304 0h-90l-204 485h131l118 -283l122 283h90l121 -283l119 283h131l-204 -485h-90l-122 282z" />
    <glyph glyph-name="x" unicode="x" horiz-adv-x="546" 
d="M273 347l96 138h149l-163 -226l186 -259h-154l-114 164l-114 -164h-154l186 259l-163 226h149z" />
    <glyph glyph-name="y" unicode="y" horiz-adv-x="573" 
d="M93 -240l134 289l-217 436h143l142 -291l131 291h137l-334 -725h-136z" />
    <glyph glyph-name="z" unicode="z" horiz-adv-x="530" 
d="M460 405l-235 -295h255v-110h-430v80l232 295h-212v110h390v-80z" />
    <glyph glyph-name="braceleft" unicode="{" horiz-adv-x="455" 
d="M187 250q13 -5 26.5 -12t23.5 -19.5t16.5 -33t6.5 -52.5q0 -40 -5 -76.5t-5 -73.5q0 -40 22 -54t54 -14h39v-115h-30q-97 0 -151 44.5t-54 134.5q0 44 5 83.5t5 79.5q0 38 -24 53t-66 15v80q42 0 66 15t24 53q0 40 -5 79.5t-5 83.5q0 90 54 134.5t151 44.5h30v-115h-39
q-32 0 -54 -14t-22 -54q0 -37 5 -73.5t5 -76.5q0 -32 -6.5 -52.5t-16.5 -33t-23.5 -19.5t-26.5 -12z" />
    <glyph glyph-name="bar" unicode="|" horiz-adv-x="240" 
d="M180 -200h-120v900h120v-900z" />
    <glyph glyph-name="braceright" unicode="}" horiz-adv-x="455" 
d="M268 250q-14 5 -27 12t-23 19.5t-16.5 33t-6.5 52.5q0 40 5 76.5t5 73.5q0 40 -22 54t-54 14h-39v115h30q97 0 151 -44.5t54 -134.5q0 -44 -5 -83.5t-5 -79.5q0 -38 24 -53t66 -15v-80q-42 0 -66 -15t-24 -53q0 -40 5 -79.5t5 -83.5q0 -90 -54 -134.5t-151 -44.5h-30v115
h39q32 0 54 14t22 54q0 37 -5 73.5t-5 76.5q0 32 6.5 52.5t16.5 33t23 19.5t27 12z" />
    <glyph glyph-name="asciitilde" unicode="~" horiz-adv-x="570" 
d="M20 215q6 31 19.5 60.5t34.5 52t49.5 36t64.5 13.5t63.5 -13t49.5 -29t40.5 -29t36.5 -13q26 0 42.5 23t22.5 56l107 -27q-6 -31 -19.5 -60.5t-34.5 -52t-49.5 -36t-64.5 -13.5t-63.5 13t-49.5 29t-40.5 29t-36.5 13q-26 0 -42.5 -23t-22.5 -56z" />
    <glyph glyph-name="uni00A0" unicode="&#xa0;" horiz-adv-x="270" 
 />
    <glyph glyph-name="exclamdown" unicode="&#xa1;" horiz-adv-x="375" 
d="M252 -25v-215h-130v215l20 255h90zM100 410q0 37 25 61t62 24t62.5 -24t25.5 -61t-25.5 -61.5t-62.5 -24.5t-62 24.5t-25 61.5z" />
    <glyph glyph-name="cent" unicode="&#xa2;" horiz-adv-x="540" 
d="M165 242q0 -29 10 -53t27.5 -41.5t42 -27.5t54.5 -10q40 0 70 20t46 44l100 -75q-35 -46 -76 -71.5t-92 -33.5v-109h-120v114q-43 10 -78 32.5t-60.5 54.5t-39.5 72t-14 84t14 83.5t39.5 71.5t61 55t77.5 34v114h120v-110q48 -9 87 -33t66 -59l-92 -81q-20 26 -48.5 42
t-63.5 16q-28 0 -52 -10.5t-41.5 -28.5t-27.5 -42t-10 -52z" />
    <glyph glyph-name="sterling" unicode="&#xa3;" horiz-adv-x="530" 
d="M379 405v-110h-97q2 -11 3 -22t1 -25q0 -43 -13 -75t-27 -53h274v-120h-495v80q62 20 96.5 64t34.5 103q0 11 -1 22.5t-4 25.5h-111v110h66q-9 22 -14.5 47t-5.5 56q0 42 17 79t46 64t67.5 43t81.5 16q76 0 125.5 -38t72.5 -98l-113 -44q-9 24 -30 42t-51 18
q-36 0 -61 -23.5t-25 -58.5q0 -26 8.5 -51.5t19.5 -51.5h135z" />
    <glyph glyph-name="currency" unicode="&#xa4;" horiz-adv-x="610" 
d="M94 351q0 54 26 100l-80 80l85 85l80 -80q46 26 100 26q55 0 101 -26l79 80l85 -85l-79 -80q25 -47 25 -100q0 -54 -25 -101l79 -79l-85 -85l-79 79q-47 -25 -101 -25q-53 0 -100 25l-80 -79l-85 85l80 79q-26 46 -26 101zM224 351q0 -34 23.5 -57.5t57.5 -23.5
t57.5 23.5t23.5 57.5t-23.5 57.5t-57.5 23.5t-57.5 -23.5t-23.5 -57.5z" />
    <glyph glyph-name="yen" unicode="&#xa5;" horiz-adv-x="625" 
d="M52 325h188l-32 50h-156v110h87l-134 215h154l154 -246l153 246h154l-135 -215h88v-110h-157l-31 -50h188v-110h-193v-215h-135v215h-193v110z" />
    <glyph glyph-name="brokenbar" unicode="&#xa6;" horiz-adv-x="280" 
d="M200 -200h-120v390h120v-390zM200 310h-120v390h120v-390z" />
    <glyph glyph-name="section" unicode="&#xa7;" horiz-adv-x="573" 
d="M538 215q0 -46 -19 -84t-51 -66q14 -20 22 -44t8 -54q0 -47 -20 -83.5t-52 -62t-74 -38.5t-85 -13q-54 0 -103.5 14.5t-99.5 51.5l70 100q21 -20 53.5 -33t67.5 -13q19 0 38.5 4.5t35 13.5t25 23.5t9.5 34.5q0 28 -24.5 45.5t-60.5 32t-79 29.5t-79 39t-60.5 60.5
t-24.5 92.5q0 46 19 83.5t51 65.5q-14 20 -22 44t-8 55q0 47 20 83.5t52 62t73.5 38.5t85.5 13q54 0 103.5 -14.5t99.5 -51.5l-70 -100q-21 20 -53.5 33t-67.5 13q-19 0 -38.5 -4.5t-35 -13.5t-25 -23.5t-9.5 -34.5q0 -28 24.5 -45.5t60.5 -32t79 -29.5t79 -39t60.5 -60.5
t24.5 -92.5zM403 213q0 29 -18 46.5t-46.5 30t-63.5 22.5t-68 25q-37 -25 -37 -70q0 -29 18 -46.5t46.5 -30t63 -23t68.5 -25.5q17 12 27 30t10 41z" />
    <glyph glyph-name="dieresis" unicode="&#xa8;" horiz-adv-x="510" 
d="M70 642q0 33 23.5 55.5t56.5 22.5t56.5 -22.5t23.5 -55.5t-23.5 -55.5t-56.5 -22.5t-56.5 22.5t-23.5 55.5zM280 642q0 33 23.5 55.5t56.5 22.5t56.5 -22.5t23.5 -55.5t-23.5 -55.5t-56.5 -22.5t-56.5 22.5t-23.5 55.5z" />
    <glyph glyph-name="copyright" unicode="&#xa9;" horiz-adv-x="840" 
d="M70 350q0 72 27.5 136t75 111.5t111.5 75t136 27.5t136 -27.5t111.5 -75t75 -111.5t27.5 -136t-27.5 -136t-75 -111.5t-111.5 -75t-136 -27.5t-136 27.5t-111.5 75t-75 111.5t-27.5 136zM140 350q0 -58 22 -109t60 -89t89 -60t109 -22t109 22t89 60t60 89t22 109t-22 109
t-60 89t-89 60t-109 22t-109 -22t-89 -60t-60 -89t-22 -109zM570 205q-21 -22 -57.5 -38.5t-78.5 -16.5q-44 0 -82 15t-66 42t-44 63.5t-16 79.5t15.5 80t43 64t64.5 42t80 15q78 0 126 -46l-49 -59q-16 11 -35 18t-41 7q-24 0 -45.5 -9.5t-37.5 -26t-25 -38.5t-9 -47
t9.5 -47t25.5 -38t38 -25.5t47 -9.5q26 0 47.5 9.5t38.5 26.5z" />
    <glyph glyph-name="ordfeminine" unicode="&#xaa;" horiz-adv-x="416" 
d="M371 396h-89v22q-34 -28 -85 -28q-33 0 -63 14.5t-50 37.5q-18 21 -28.5 48.5t-10.5 59.5q0 34 12 63t32 50.5t47.5 34t59.5 12.5q51 0 86 -28v22h89v-308zM281 593q-12 17 -29.5 27t-40.5 10q-35 0 -55.5 -24t-20.5 -56q0 -34 22 -57t55 -23q23 0 40.5 9.5t28.5 26.5v87
z" />
    <glyph glyph-name="guillemotleft" unicode="&#xab;" horiz-adv-x="659" 
d="M339 437l-156 -190l156 -190h-143l-126 155v70l126 155h143zM619 437l-156 -190l156 -190h-143l-126 155v70l126 155h143z" />
    <glyph glyph-name="logicalnot" unicode="&#xac;" horiz-adv-x="550" 
d="M505 120h-110v210h-350v110h460v-320z" />
    <glyph glyph-name="uni00AD" unicode="&#xad;" horiz-adv-x="470" 
d="M400 315v-110h-330v110h330z" />
    <glyph glyph-name="registered" unicode="&#xae;" horiz-adv-x="840" 
d="M70 350q0 72 27.5 136t75 111.5t111.5 75t136 27.5t136 -27.5t111.5 -75t75 -111.5t27.5 -136t-27.5 -136t-75 -111.5t-111.5 -75t-136 -27.5t-136 27.5t-111.5 75t-75 111.5t-27.5 136zM372 321v-162h-87v383h136q36 0 58 -8t38 -22q38 -33 38 -86q0 -29 -13 -51.5
t-36 -36.5q-5 -4 -11 -6.5t-13 -4.5l115 -168h-95l-107 162h-23zM424 392q15 0 23.5 3t13.5 10q7 9 7 21q0 13 -7 22q-5 6 -13.5 10t-23.5 4h-52v-70h52zM140 350q0 -58 22 -109t60 -89t89 -60t109 -22t109 22t89 60t60 89t22 109t-22 109t-60 89t-89 60t-109 22t-109 -22
t-89 -60t-60 -89t-22 -109z" />
    <glyph glyph-name="macron" unicode="&#xaf;" horiz-adv-x="460" 
d="M390 690v-100h-320v100h320z" />
    <glyph glyph-name="degree" unicode="&#xb0;" horiz-adv-x="430" 
d="M45 540q0 35 13.5 66t36.5 54t54 36.5t66 13.5t66 -13.5t54 -36.5t36.5 -54t13.5 -66t-13.5 -66t-36.5 -54t-54 -36.5t-66 -13.5t-66 13.5t-54 36.5t-36.5 54t-13.5 66zM145 540q0 -29 20.5 -49.5t49.5 -20.5t49.5 20.5t20.5 49.5t-20.5 49.5t-49.5 20.5t-49.5 -20.5
t-20.5 -49.5z" />
    <glyph glyph-name="plusminus" unicode="&#xb1;" horiz-adv-x="550" 
d="M45 294v110h175v126h110v-126h175v-110h-175v-126h-110v126h-175zM505 140v-110h-460v110h460z" />
    <glyph glyph-name="twosuperior" unicode="&#xb2;" horiz-adv-x="317" 
d="M35 620q11 42 45.5 66t79.5 24q24 0 46 -8t38.5 -23t26 -36t9.5 -46q0 -27 -11.5 -51.5t-30.5 -47.5l-59 -73h108v-85h-257v50l131 159q21 27 21 43q0 11 -6.5 19.5t-19.5 8.5q-11 0 -19 -7.5t-12 -18.5z" />
    <glyph glyph-name="threesuperior" unicode="&#xb3;" horiz-adv-x="296" 
d="M78 546l58 74h-114v80h230v-50l-60 -85q35 -14 54.5 -43.5t19.5 -64.5q0 -29 -12 -52t-31.5 -40t-46 -26t-54.5 -9q-35 0 -66 12t-56 37l59 60q6 -8 20.5 -17.5t39.5 -9.5q19 0 34 12t15 33q0 20 -15 33.5t-36 13.5q-11 0 -21 -2.5t-18 -5.5v50z" />
    <glyph glyph-name="acute" unicode="&#xb4;" horiz-adv-x="350" 
d="M280 720l-120 -160h-90l70 160h140z" />
    <glyph glyph-name="mu" unicode="&#xb5;" horiz-adv-x="620" 
d="M545 485v-485h-125v39q-29 -26 -62.5 -37.5t-68.5 -11.5q-23 0 -45 5.5t-39 16.5v-252h-130v725h130v-262q0 -33 6.5 -51.5t17.5 -31.5q15 -17 34.5 -23.5t38.5 -6.5q21 0 38.5 6t32 15t25 19.5t17.5 19.5v315h130z" />
    <glyph glyph-name="paragraph" unicode="&#xb6;" horiz-adv-x="725" 
d="M240 590q-41 -4 -68 -33.5t-27 -71.5t27 -71.5t68 -33.5v210zM680 700v-110h-100v-790h-120v790h-100v-790h-120v470q-45 0 -84 17t-68 46t-46 68t-17 84q0 60 30.5 109t78.5 77q24 14 55 21.5t84 7.5h407z" />
    <glyph glyph-name="periodcentered" unicode="&#xb7;" horiz-adv-x="375" 
d="M100 242q0 37 25 62.5t62 25.5t62.5 -25.5t25.5 -62.5t-25.5 -62t-62.5 -25t-62 25t-25 62z" />
    <glyph glyph-name="cedilla" unicode="&#xb8;" horiz-adv-x="310" 
d="M145 10h95l-30 -160h-130z" />
    <glyph glyph-name="onesuperior" unicode="&#xb9;" horiz-adv-x="260" 
d="M30 638l120 62h60v-360h-100v242l-80 -41v97z" />
    <glyph glyph-name="ordmasculine" unicode="&#xba;" horiz-adv-x="416" 
d="M281 550q0 34 -19 57t-54 23t-54 -23t-19 -57t19 -57t54 -23t54 23t19 57zM45 550q0 33 11.5 62t33 51t51.5 34.5t67 12.5t67 -12.5t51.5 -34.5t33 -51t11.5 -62t-11.5 -62t-33 -51t-51.5 -34.5t-67 -12.5t-67 12.5t-51.5 34.5t-33 51t-11.5 62z" />
    <glyph glyph-name="guillemotright" unicode="&#xbb;" horiz-adv-x="659" 
d="M463 437l126 -155v-70l-126 -155h-143l156 190l-156 190h143zM183 437l126 -155v-70l-126 -155h-143l156 190l-156 190h143z" />
    <glyph glyph-name="onequarter" unicode="&#xbc;" horiz-adv-x="725" 
d="M65 638l120 62h60v-360h-100v242l-80 -41v97zM100 0l409 700h111l-409 -700h-111zM599 145h66v-75h-66v-70h-85v70h-159v50l184 240h60v-215zM514 145v58l-45 -58h45z" />
    <glyph glyph-name="onehalf" unicode="&#xbd;" horiz-adv-x="727" 
d="M65 638l120 62h60v-360h-100v242l-80 -41v97zM100 0l409 700h111l-409 -700h-111zM445 280q11 42 45.5 66t79.5 24q24 0 46 -8t38.5 -23t26 -36t9.5 -46q0 -27 -11.5 -51.5t-30.5 -47.5l-59 -73h108v-85h-257v50l131 159q21 27 21 43q0 11 -6.5 19.5t-19.5 8.5
q-11 0 -19 -7.5t-12 -18.5z" />
    <glyph glyph-name="threequarters" unicode="&#xbe;" horiz-adv-x="738" 
d="M78 546l58 74h-114v80h230v-50l-60 -85q35 -14 54.5 -43.5t19.5 -64.5q0 -29 -12 -52t-31.5 -40t-46 -26t-54.5 -9q-35 0 -66 12t-56 37l59 60q6 -8 20.5 -17.5t39.5 -9.5q19 0 34 12t15 33q0 20 -15 33.5t-36 13.5q-11 0 -21 -2.5t-18 -5.5v50zM86 0l409 700h111
l-409 -700h-111zM585 145h66v-75h-66v-70h-85v70h-159v50l184 240h60v-215zM500 145v58l-45 -58h45z" />
    <glyph glyph-name="questiondown" unicode="&#xbf;" horiz-adv-x="500" 
d="M339 410q0 -37 -25 -61.5t-62 -24.5t-62.5 24.5t-25.5 61.5t25.5 61t62.5 24t62 -24t25 -61zM440 -102q-7 -30 -23.5 -56.5t-41.5 -47t-58.5 -32.5t-74.5 -12q-42 0 -79 13.5t-64.5 37.5t-43 57t-15.5 72q0 37 12 64.5t29.5 48.5t38.5 37.5t38.5 30.5t29.5 27t12 28
q0 13 -5 21t-12 15l101 70q4 -5 12 -14.5t15.5 -23.5t13 -32t5.5 -39q0 -32 -12 -56.5t-29.5 -43.5t-38.5 -34.5t-38.5 -30.5t-29.5 -30.5t-12 -35.5q0 -28 20 -45t52 -17q33 0 51.5 19.5t20.5 41.5z" />
    <glyph glyph-name="Agrave" unicode="&#xc0;" horiz-adv-x="695" 
d="M0 0l300 700h95l300 -700h-141l-66 155h-281l-66 -155h-141zM258 275h178l-89 207zM322 920l70 -160h-90l-120 160h140z" />
    <glyph glyph-name="Aacute" unicode="&#xc1;" horiz-adv-x="695" 
d="M0 0l300 700h95l300 -700h-141l-66 155h-281l-66 -155h-141zM258 275h178l-89 207zM512 920l-120 -160h-90l70 160h140z" />
    <glyph glyph-name="Acircumflex" unicode="&#xc2;" horiz-adv-x="695" 
d="M0 0l300 700h95l300 -700h-141l-66 155h-281l-66 -155h-141zM258 275h178l-89 207zM417 920l100 -160h-90l-80 90l-80 -90h-90l100 160h140z" />
    <glyph glyph-name="Atilde" unicode="&#xc3;" horiz-adv-x="695" 
d="M0 0l300 700h95l300 -700h-141l-66 155h-281l-66 -155h-141zM258 275h178l-89 207zM537 904q0 -27 -7 -51.5t-21.5 -42.5t-35 -29t-47.5 -11q-23 0 -43 8t-38 17t-35 17t-33 8q-18 0 -28 -14.5t-12 -35.5l-80 16q0 27 7 51.5t21.5 42.5t35 29t47.5 11q22 0 42.5 -8
t38.5 -17t35 -17t33 -8q18 0 28 14.5t12 35.5z" />
    <glyph glyph-name="Adieresis" unicode="&#xc4;" horiz-adv-x="695" 
d="M0 0l300 700h95l300 -700h-141l-66 155h-281l-66 -155h-141zM258 275h178l-89 207zM163 842q0 33 23.5 55.5t56.5 22.5t56.5 -22.5t23.5 -55.5t-23.5 -55.5t-56.5 -22.5t-56.5 22.5t-23.5 55.5zM373 842q0 33 23.5 55.5t56.5 22.5t56.5 -22.5t23.5 -55.5t-23.5 -55.5
t-56.5 -22.5t-56.5 22.5t-23.5 55.5z" />
    <glyph glyph-name="Aring" unicode="&#xc5;" horiz-adv-x="695" 
d="M0 0l300 700h95l300 -700h-141l-66 155h-281l-66 -155h-141zM258 275h178l-89 207zM237 850q0 23 8.5 43t23.5 35t35 23.5t43 8.5t43 -8.5t35 -23.5t23.5 -35t8.5 -43t-8.5 -43t-23.5 -35t-35 -23.5t-43 -8.5t-43 8.5t-35 23.5t-23.5 35t-8.5 43zM317 850
q0 -13 8.5 -21.5t21.5 -8.5t21.5 8.5t8.5 21.5t-8.5 21.5t-21.5 8.5t-21.5 -8.5t-8.5 -21.5z" />
    <glyph glyph-name="AE" unicode="&#xc6;" horiz-adv-x="960" 
d="M625 580v-145h225v-120h-225v-195h295v-120h-430v155h-256l-93 -155h-151l421 700h499v-120h-285zM490 275v306l-184 -306h184z" />
    <glyph glyph-name="Ccedilla" unicode="&#xc7;" horiz-adv-x="715" 
d="M337 -5q-69 10 -125.5 41.5t-97 78.5t-62.5 107t-22 128q0 75 27 141t75.5 114.5t116.5 76.5t150 28q78 0 143 -27t113 -73l-87 -92q-32 32 -75 52t-95 20q-50 0 -92.5 -19t-74 -51.5t-49 -76t-17.5 -93.5q0 -51 18.5 -95t50.5 -76t75.5 -50.5t94.5 -18.5q69 0 118 28.5
t80 68.5l93 -83q-43 -54 -109.5 -90t-151.5 -42l-26 -142h-130z" />
    <glyph glyph-name="Egrave" unicode="&#xc8;" horiz-adv-x="550" 
d="M215 580v-145h215v-120h-215v-195h295v-120h-430v700h420v-120h-285zM277 920l70 -160h-90l-120 160h140z" />
    <glyph glyph-name="Eacute" unicode="&#xc9;" horiz-adv-x="550" 
d="M215 580v-145h215v-120h-215v-195h295v-120h-430v700h420v-120h-285zM450 920l-120 -160h-90l70 160h140z" />
    <glyph glyph-name="Ecircumflex" unicode="&#xca;" horiz-adv-x="550" 
d="M215 580v-145h215v-120h-215v-195h295v-120h-430v700h420v-120h-285zM365 920l100 -160h-90l-80 90l-80 -90h-90l100 160h140z" />
    <glyph glyph-name="Edieresis" unicode="&#xcb;" horiz-adv-x="550" 
d="M215 580v-145h215v-120h-215v-195h295v-120h-430v700h420v-120h-285zM106 842q0 33 23.5 55.5t56.5 22.5t56.5 -22.5t23.5 -55.5t-23.5 -55.5t-56.5 -22.5t-56.5 22.5t-23.5 55.5zM316 842q0 33 23.5 55.5t56.5 22.5t56.5 -22.5t23.5 -55.5t-23.5 -55.5t-56.5 -22.5
t-56.5 22.5t-23.5 55.5z" />
    <glyph glyph-name="Igrave" unicode="&#xcc;" horiz-adv-x="295" 
d="M80 700h135v-700h-135v700zM126 920l70 -160h-90l-120 160h140z" />
    <glyph glyph-name="Iacute" unicode="&#xcd;" horiz-adv-x="295" 
d="M80 700h135v-700h-135v700zM310 920l-120 -160h-90l70 160h140z" />
    <glyph glyph-name="Icircumflex" unicode="&#xce;" horiz-adv-x="295" 
d="M80 700h135v-700h-135v700zM218 920l100 -160h-90l-80 90l-80 -90h-90l100 160h140z" />
    <glyph glyph-name="Idieresis" unicode="&#xcf;" horiz-adv-x="295" 
d="M80 700h135v-700h-135v700zM-37 842q0 33 23.5 55.5t56.5 22.5t56.5 -22.5t23.5 -55.5t-23.5 -55.5t-56.5 -22.5t-56.5 22.5t-23.5 55.5zM173 842q0 33 23.5 55.5t56.5 22.5t56.5 -22.5t23.5 -55.5t-23.5 -55.5t-56.5 -22.5t-56.5 22.5t-23.5 55.5z" />
    <glyph glyph-name="Eth" unicode="&#xd0;" horiz-adv-x="730" 
d="M0 435h100v265h220q84 0 141 -17t100 -49q65 -48 102 -122t37 -162t-37 -162t-102 -122q-43 -32 -100 -49t-141 -17h-220v315h-100v120zM565 350q0 44 -13.5 83t-37.5 69q-29 37 -72.5 57.5t-106.5 20.5h-100v-145h200v-120h-200v-195h100q63 0 106.5 20.5t72.5 57.5
q24 30 37.5 69t13.5 83z" />
    <glyph glyph-name="Ntilde" unicode="&#xd1;" horiz-adv-x="780" 
d="M80 700h95l390 -456v456h135v-700h-95l-390 456v-456h-135v700zM575 904q0 -27 -7 -51.5t-21.5 -42.5t-35 -29t-47.5 -11q-23 0 -43 8t-38 17t-35 17t-33 8q-18 0 -28 -14.5t-12 -35.5l-80 16q0 27 7 51.5t21.5 42.5t35 29t47.5 11q22 0 42.5 -8t38.5 -17t35 -17t33 -8
q18 0 28 14.5t12 35.5z" />
    <glyph glyph-name="Ograve" unicode="&#xd2;" horiz-adv-x="790" 
d="M165 350q0 -50 17.5 -93.5t48 -76t72.5 -51.5t92 -19q49 0 91.5 19t73 51.5t48 76t17.5 93.5q0 49 -17.5 93t-48 76.5t-73 51.5t-91.5 19q-50 0 -92 -19t-72.5 -51.5t-48 -76.5t-17.5 -93zM30 350q0 75 26.5 140.5t75 114t115.5 77t148 28.5t148 -28.5t115.5 -77t75 -114
t26.5 -140.5t-26.5 -140.5t-75 -114t-115.5 -77t-148 -28.5t-148 28.5t-115.5 77t-75 114t-26.5 140.5zM370 920l70 -160h-90l-120 160h140z" />
    <glyph glyph-name="Oacute" unicode="&#xd3;" horiz-adv-x="790" 
d="M165 350q0 -50 17.5 -93.5t48 -76t72.5 -51.5t92 -19q49 0 91.5 19t73 51.5t48 76t17.5 93.5q0 49 -17.5 93t-48 76.5t-73 51.5t-91.5 19q-50 0 -92 -19t-72.5 -51.5t-48 -76.5t-17.5 -93zM30 350q0 75 26.5 140.5t75 114t115.5 77t148 28.5t148 -28.5t115.5 -77t75 -114
t26.5 -140.5t-26.5 -140.5t-75 -114t-115.5 -77t-148 -28.5t-148 28.5t-115.5 77t-75 114t-26.5 140.5zM560 920l-120 -160h-90l70 160h140z" />
    <glyph glyph-name="Ocircumflex" unicode="&#xd4;" horiz-adv-x="790" 
d="M165 350q0 -50 17.5 -93.5t48 -76t72.5 -51.5t92 -19q49 0 91.5 19t73 51.5t48 76t17.5 93.5q0 49 -17.5 93t-48 76.5t-73 51.5t-91.5 19q-50 0 -92 -19t-72.5 -51.5t-48 -76.5t-17.5 -93zM30 350q0 75 26.5 140.5t75 114t115.5 77t148 28.5t148 -28.5t115.5 -77t75 -114
t26.5 -140.5t-26.5 -140.5t-75 -114t-115.5 -77t-148 -28.5t-148 28.5t-115.5 77t-75 114t-26.5 140.5zM465 920l100 -160h-90l-80 90l-80 -90h-90l100 160h140z" />
    <glyph glyph-name="Otilde" unicode="&#xd5;" horiz-adv-x="790" 
d="M165 350q0 -50 17.5 -93.5t48 -76t72.5 -51.5t92 -19q49 0 91.5 19t73 51.5t48 76t17.5 93.5q0 49 -17.5 93t-48 76.5t-73 51.5t-91.5 19q-50 0 -92 -19t-72.5 -51.5t-48 -76.5t-17.5 -93zM30 350q0 75 26.5 140.5t75 114t115.5 77t148 28.5t148 -28.5t115.5 -77t75 -114
t26.5 -140.5t-26.5 -140.5t-75 -114t-115.5 -77t-148 -28.5t-148 28.5t-115.5 77t-75 114t-26.5 140.5zM585 904q0 -27 -7 -51.5t-21.5 -42.5t-35 -29t-47.5 -11q-23 0 -43 8t-38 17t-35 17t-33 8q-18 0 -28 -14.5t-12 -35.5l-80 16q0 27 7 51.5t21.5 42.5t35 29t47.5 11
q22 0 42.5 -8t38.5 -17t35 -17t33 -8q18 0 28 14.5t12 35.5z" />
    <glyph glyph-name="Odieresis" unicode="&#xd6;" horiz-adv-x="790" 
d="M165 350q0 -50 17.5 -93.5t48 -76t72.5 -51.5t92 -19q49 0 91.5 19t73 51.5t48 76t17.5 93.5q0 49 -17.5 93t-48 76.5t-73 51.5t-91.5 19q-50 0 -92 -19t-72.5 -51.5t-48 -76.5t-17.5 -93zM30 350q0 75 26.5 140.5t75 114t115.5 77t148 28.5t148 -28.5t115.5 -77t75 -114
t26.5 -140.5t-26.5 -140.5t-75 -114t-115.5 -77t-148 -28.5t-148 28.5t-115.5 77t-75 114t-26.5 140.5zM210 842q0 33 23.5 55.5t56.5 22.5t56.5 -22.5t23.5 -55.5t-23.5 -55.5t-56.5 -22.5t-56.5 22.5t-23.5 55.5zM420 842q0 33 23.5 55.5t56.5 22.5t56.5 -22.5t23.5 -55.5
t-23.5 -55.5t-56.5 -22.5t-56.5 22.5t-23.5 55.5z" />
    <glyph glyph-name="multiply" unicode="&#xd7;" horiz-adv-x="530" 
d="M265 358l145 145l78 -78l-145 -145l145 -145l-78 -78l-145 145l-145 -145l-78 78l145 145l-145 145l78 78z" />
    <glyph glyph-name="Oslash" unicode="&#xd8;" horiz-adv-x="790" 
d="M30 350q0 75 26.5 140.5t75 114t115.5 77t148 28.5q52 0 98 -12t86 -34l37 46h164l-104 -125q40 -48 62 -107.5t22 -127.5q0 -75 -26.5 -140.5t-75 -114t-115.5 -77t-148 -28.5q-53 0 -99 12t-86 34l-38 -46h-163l105 124q-41 48 -62.5 108t-21.5 128zM625 350
q0 36 -10 69.5t-27 62.5l-295 -348q23 -11 48.5 -17.5t53.5 -6.5q49 0 91.5 19t73 51.5t48 76t17.5 93.5zM165 350q0 -73 36 -132l295 348q-23 11 -48.5 17.5t-52.5 6.5q-50 0 -92 -19t-72.5 -51.5t-48 -76.5t-17.5 -93z" />
    <glyph glyph-name="Ugrave" unicode="&#xd9;" horiz-adv-x="750" 
d="M375 -10q-60 0 -114.5 18t-95.5 54q-44 39 -67 95.5t-23 137.5v405h135v-415q0 -48 12 -79t34 -51q47 -45 119 -45t119 45q22 20 34 51t12 79v415h135v-405q0 -81 -23 -137.5t-67 -95.5q-41 -36 -95.5 -54t-114.5 -18zM351 920l70 -160h-90l-120 160h140z" />
    <glyph glyph-name="Uacute" unicode="&#xda;" horiz-adv-x="750" 
d="M375 -10q-60 0 -114.5 18t-95.5 54q-44 39 -67 95.5t-23 137.5v405h135v-415q0 -48 12 -79t34 -51q47 -45 119 -45t119 45q22 20 34 51t12 79v415h135v-405q0 -81 -23 -137.5t-67 -95.5q-41 -36 -95.5 -54t-114.5 -18zM540 920l-120 -160h-90l70 160h140z" />
    <glyph glyph-name="Ucircumflex" unicode="&#xdb;" horiz-adv-x="750" 
d="M375 -10q-60 0 -114.5 18t-95.5 54q-44 39 -67 95.5t-23 137.5v405h135v-415q0 -48 12 -79t34 -51q47 -45 119 -45t119 45q22 20 34 51t12 79v415h135v-405q0 -81 -23 -137.5t-67 -95.5q-41 -36 -95.5 -54t-114.5 -18zM445 920l100 -160h-90l-80 90l-80 -90h-90l100 160
h140z" />
    <glyph glyph-name="Udieresis" unicode="&#xdc;" horiz-adv-x="750" 
d="M375 -10q-60 0 -114.5 18t-95.5 54q-44 39 -67 95.5t-23 137.5v405h135v-415q0 -48 12 -79t34 -51q47 -45 119 -45t119 45q22 20 34 51t12 79v415h135v-405q0 -81 -23 -137.5t-67 -95.5q-41 -36 -95.5 -54t-114.5 -18zM190 842q0 33 23.5 55.5t56.5 22.5t56.5 -22.5
t23.5 -55.5t-23.5 -55.5t-56.5 -22.5t-56.5 22.5t-23.5 55.5zM400 842q0 33 23.5 55.5t56.5 22.5t56.5 -22.5t23.5 -55.5t-23.5 -55.5t-56.5 -22.5t-56.5 22.5t-23.5 55.5z" />
    <glyph glyph-name="Yacute" unicode="&#xdd;" horiz-adv-x="625" 
d="M380 317v-317h-135v317l-240 383h154l154 -246l153 246h154zM477 920l-120 -160h-90l70 160h140z" />
    <glyph glyph-name="Thorn" unicode="&#xde;" horiz-adv-x="600" 
d="M80 700h135v-140h128q68 0 110.5 -17t71.5 -48q26 -27 40.5 -64t14.5 -79t-14.5 -79t-40.5 -64q-29 -30 -71.5 -47t-110.5 -17h-128v-145h-135v700zM337 265q35 0 54 7.5t31 20.5q23 25 23 59q0 35 -23 60q-12 13 -31 20.5t-54 7.5h-122v-175h122z" />
    <glyph glyph-name="germandbls" unicode="&#xdf;" horiz-adv-x="605" 
d="M281 442q41 0 65 22q12 11 19.5 27.5t7.5 34.5q0 35 -24 59.5t-60 24.5q-40 0 -64 -29q-10 -11 -15 -28t-5 -47v-506h-130v505q0 26 3 47q5 31 14.5 54t24.5 43q29 37 73 59t98 22q46 0 85 -16t68 -44t45.5 -65.5t16.5 -79.5q0 -33 -11.5 -63.5t-31.5 -53.5
q50 -28 80 -79.5t30 -111.5q0 -47 -17.5 -88.5t-48 -72.5t-71.5 -48.5t-89 -17.5q-62 0 -111 27l56 103q11 -5 22.5 -7.5t24.5 -2.5q47 0 75.5 30.5t28.5 73.5q0 26 -10.5 48t-28.5 36q-14 11 -33.5 17.5t-53.5 6.5h-33v120z" />
    <glyph glyph-name="agrave" unicode="&#xe0;" horiz-adv-x="615" 
d="M410 315q-20 27 -51 43.5t-69 16.5q-29 0 -52 -11t-39 -29.5t-25 -42.5t-9 -50q0 -29 9.5 -53t27 -41.5t41 -27.5t50.5 -10q37 0 67.5 16.5t49.5 43.5v145zM540 0h-125v39q-30 -26 -64 -37.5t-71 -11.5q-54 0 -102.5 22t-80.5 60q-29 33 -45.5 76.5t-16.5 93.5
q0 54 18.5 100t51 80t75.5 53.5t93 19.5q42 0 77.5 -13t64.5 -36v39h125v-485zM330 720l70 -160h-90l-120 160h140z" />
    <glyph glyph-name="aacute" unicode="&#xe1;" horiz-adv-x="615" 
d="M410 315q-20 27 -51 43.5t-69 16.5q-29 0 -52 -11t-39 -29.5t-25 -42.5t-9 -50q0 -29 9.5 -53t27 -41.5t41 -27.5t50.5 -10q37 0 67.5 16.5t49.5 43.5v145zM540 0h-125v39q-30 -26 -64 -37.5t-71 -11.5q-54 0 -102.5 22t-80.5 60q-29 33 -45.5 76.5t-16.5 93.5
q0 54 18.5 100t51 80t75.5 53.5t93 19.5q42 0 77.5 -13t64.5 -36v39h125v-485zM470 720l-120 -160h-90l70 160h140z" />
    <glyph glyph-name="acircumflex" unicode="&#xe2;" horiz-adv-x="615" 
d="M410 315q-20 27 -51 43.5t-69 16.5q-29 0 -52 -11t-39 -29.5t-25 -42.5t-9 -50q0 -29 9.5 -53t27 -41.5t41 -27.5t50.5 -10q37 0 67.5 16.5t49.5 43.5v145zM540 0h-125v39q-30 -26 -64 -37.5t-71 -11.5q-54 0 -102.5 22t-80.5 60q-29 33 -45.5 76.5t-16.5 93.5
q0 54 18.5 100t51 80t75.5 53.5t93 19.5q42 0 77.5 -13t64.5 -36v39h125v-485zM385 720l100 -160h-90l-80 90l-80 -90h-90l100 160h140z" />
    <glyph glyph-name="atilde" unicode="&#xe3;" horiz-adv-x="615" 
d="M410 315q-20 27 -51 43.5t-69 16.5q-29 0 -52 -11t-39 -29.5t-25 -42.5t-9 -50q0 -29 9.5 -53t27 -41.5t41 -27.5t50.5 -10q37 0 67.5 16.5t49.5 43.5v145zM540 0h-125v39q-30 -26 -64 -37.5t-71 -11.5q-54 0 -102.5 22t-80.5 60q-29 33 -45.5 76.5t-16.5 93.5
q0 54 18.5 100t51 80t75.5 53.5t93 19.5q42 0 77.5 -13t64.5 -36v39h125v-485zM510 704q0 -27 -7 -51.5t-21.5 -42.5t-35 -29t-47.5 -11q-23 0 -43 8t-38 17t-35 17t-33 8q-18 0 -28 -14.5t-12 -35.5l-80 16q0 27 7 51.5t21.5 42.5t35 29t47.5 11q22 0 42.5 -8t38.5 -17
t35 -17t33 -8q18 0 28 14.5t12 35.5z" />
    <glyph glyph-name="adieresis" unicode="&#xe4;" horiz-adv-x="615" 
d="M410 315q-20 27 -51 43.5t-69 16.5q-29 0 -52 -11t-39 -29.5t-25 -42.5t-9 -50q0 -29 9.5 -53t27 -41.5t41 -27.5t50.5 -10q37 0 67.5 16.5t49.5 43.5v145zM540 0h-125v39q-30 -26 -64 -37.5t-71 -11.5q-54 0 -102.5 22t-80.5 60q-29 33 -45.5 76.5t-16.5 93.5
q0 54 18.5 100t51 80t75.5 53.5t93 19.5q42 0 77.5 -13t64.5 -36v39h125v-485zM130 642q0 33 23.5 55.5t56.5 22.5t56.5 -22.5t23.5 -55.5t-23.5 -55.5t-56.5 -22.5t-56.5 22.5t-23.5 55.5zM340 642q0 33 23.5 55.5t56.5 22.5t56.5 -22.5t23.5 -55.5t-23.5 -55.5
t-56.5 -22.5t-56.5 22.5t-23.5 55.5z" />
    <glyph glyph-name="aring" unicode="&#xe5;" horiz-adv-x="615" 
d="M410 315q-20 27 -51 43.5t-69 16.5q-29 0 -52 -11t-39 -29.5t-25 -42.5t-9 -50q0 -29 9.5 -53t27 -41.5t41 -27.5t50.5 -10q37 0 67.5 16.5t49.5 43.5v145zM540 0h-125v39q-30 -26 -64 -37.5t-71 -11.5q-54 0 -102.5 22t-80.5 60q-29 33 -45.5 76.5t-16.5 93.5
q0 54 18.5 100t51 80t75.5 53.5t93 19.5q42 0 77.5 -13t64.5 -36v39h125v-485zM215 650q0 23 8.5 43t23.5 35t35 23.5t43 8.5t43 -8.5t35 -23.5t23.5 -35t8.5 -43t-8.5 -43t-23.5 -35t-35 -23.5t-43 -8.5t-43 8.5t-35 23.5t-23.5 35t-8.5 43zM295 650q0 -13 8.5 -21.5
t21.5 -8.5t21.5 8.5t8.5 21.5t-8.5 21.5t-21.5 8.5t-21.5 -8.5t-8.5 -21.5z" />
    <glyph glyph-name="ae" unicode="&#xe6;" horiz-adv-x="921" 
d="M874 77q-35 -42 -88.5 -64.5t-110.5 -22.5q-38 0 -78 13.5t-67 35.5v-39h-115v39q-30 -26 -64 -37.5t-71 -11.5q-54 0 -102.5 22t-80.5 60q-29 33 -45.5 76.5t-16.5 93.5q0 54 18.5 100t51 80t75.5 53.5t93 19.5q42 0 77.5 -13t64.5 -36v39h115v-39q21 20 53.5 34.5
t70.5 14.5q48 0 90 -19.5t73.5 -53t50 -79t18.5 -96.5q0 -21 -3 -37h-346q3 -26 14.5 -47t30 -36t42 -23.5t49.5 -8.5q42 0 76 18.5t51 37.5zM410 315q-20 27 -51 43.5t-69 16.5q-29 0 -52 -11t-39 -29.5t-25 -42.5t-9 -50q0 -29 9.5 -53t27 -41.5t41 -27.5t50.5 -10
q37 0 67.5 16.5t49.5 43.5v145zM753 305q-3 18 -12 33.5t-23 27t-31.5 18t-36.5 6.5q-38 0 -68.5 -23t-38.5 -62h210z" />
    <glyph glyph-name="ccedilla" unicode="&#xe7;" horiz-adv-x="540" 
d="M165 242q0 -29 10 -53t27.5 -41.5t42 -27.5t54.5 -10q40 0 70 20t46 44l100 -75q-69 -92 -172 -105l-27 -144h-130l58 145q-46 8 -84.5 30t-66 55t-43 74t-15.5 88q0 53 20 99t55 80.5t82.5 54t103.5 19.5q63 0 116.5 -26.5t87.5 -70.5l-92 -81q-20 26 -48.5 42t-63.5 16
q-28 0 -52 -10.5t-41.5 -28.5t-27.5 -42t-10 -52z" />
    <glyph glyph-name="egrave" unicode="&#xe8;" horiz-adv-x="535" 
d="M488 77q-35 -42 -88.5 -64.5t-110.5 -22.5q-54 0 -100.5 18t-80.5 51t-53.5 79.5t-19.5 103.5q0 51 16.5 96.5t47.5 80.5t74.5 55.5t97.5 20.5q50 0 92 -20t72.5 -53.5t47.5 -78.5t17 -96q0 -21 -3 -37h-336q3 -26 14 -47t28.5 -36t40 -23.5t48.5 -8.5q42 0 73.5 18.5
t48.5 37.5zM367 305q-2 16 -9.5 31.5t-20 27.5t-29.5 19t-37 7q-41 0 -70 -26t-34 -59h200zM257 720l70 -160h-90l-120 160h140z" />
    <glyph glyph-name="eacute" unicode="&#xe9;" horiz-adv-x="535" 
d="M488 77q-35 -42 -88.5 -64.5t-110.5 -22.5q-54 0 -100.5 18t-80.5 51t-53.5 79.5t-19.5 103.5q0 51 16.5 96.5t47.5 80.5t74.5 55.5t97.5 20.5q50 0 92 -20t72.5 -53.5t47.5 -78.5t17 -96q0 -21 -3 -37h-336q3 -26 14 -47t28.5 -36t40 -23.5t48.5 -8.5q42 0 73.5 18.5
t48.5 37.5zM367 305q-2 16 -9.5 31.5t-20 27.5t-29.5 19t-37 7q-41 0 -70 -26t-34 -59h200zM437 720l-120 -160h-90l70 160h140z" />
    <glyph glyph-name="ecircumflex" unicode="&#xea;" horiz-adv-x="535" 
d="M488 77q-35 -42 -88.5 -64.5t-110.5 -22.5q-54 0 -100.5 18t-80.5 51t-53.5 79.5t-19.5 103.5q0 51 16.5 96.5t47.5 80.5t74.5 55.5t97.5 20.5q50 0 92 -20t72.5 -53.5t47.5 -78.5t17 -96q0 -21 -3 -37h-336q3 -26 14 -47t28.5 -36t40 -23.5t48.5 -8.5q42 0 73.5 18.5
t48.5 37.5zM367 305q-2 16 -9.5 31.5t-20 27.5t-29.5 19t-37 7q-41 0 -70 -26t-34 -59h200zM347 720l100 -160h-90l-80 90l-80 -90h-90l100 160h140z" />
    <glyph glyph-name="edieresis" unicode="&#xeb;" horiz-adv-x="535" 
d="M488 77q-35 -42 -88.5 -64.5t-110.5 -22.5q-54 0 -100.5 18t-80.5 51t-53.5 79.5t-19.5 103.5q0 51 16.5 96.5t47.5 80.5t74.5 55.5t97.5 20.5q50 0 92 -20t72.5 -53.5t47.5 -78.5t17 -96q0 -21 -3 -37h-336q3 -26 14 -47t28.5 -36t40 -23.5t48.5 -8.5q42 0 73.5 18.5
t48.5 37.5zM367 305q-2 16 -9.5 31.5t-20 27.5t-29.5 19t-37 7q-41 0 -70 -26t-34 -59h200zM92 642q0 33 23.5 55.5t56.5 22.5t56.5 -22.5t23.5 -55.5t-23.5 -55.5t-56.5 -22.5t-56.5 22.5t-23.5 55.5zM302 642q0 33 23.5 55.5t56.5 22.5t56.5 -22.5t23.5 -55.5t-23.5 -55.5
t-56.5 -22.5t-56.5 22.5t-23.5 55.5z" />
    <glyph glyph-name="igrave" unicode="&#xec;" horiz-adv-x="280" 
d="M205 0h-130v485h130v-485zM126 720l70 -160h-90l-120 160h140z" />
    <glyph glyph-name="iacute" unicode="&#xed;" horiz-adv-x="280" 
d="M205 0h-130v485h130v-485zM295 720l-120 -160h-90l70 160h140z" />
    <glyph glyph-name="icircumflex" unicode="&#xee;" horiz-adv-x="280" 
d="M205 0h-130v485h130v-485zM211 720l100 -160h-90l-80 90l-80 -90h-90l100 160h140z" />
    <glyph glyph-name="idieresis" unicode="&#xef;" horiz-adv-x="280" 
d="M205 0h-130v485h130v-485zM-43 642q0 33 23.5 55.5t56.5 22.5t56.5 -22.5t23.5 -55.5t-23.5 -55.5t-56.5 -22.5t-56.5 22.5t-23.5 55.5zM167 642q0 33 23.5 55.5t56.5 22.5t56.5 -22.5t23.5 -55.5t-23.5 -55.5t-56.5 -22.5t-56.5 22.5t-23.5 55.5z" />
    <glyph glyph-name="eth" unicode="&#xf0;" horiz-adv-x="586" 
d="M184 627l-58 83h151l15 -21l90 51l49 -88l-80 -46l111 -153q16 -22 32 -47t28.5 -52t20.5 -55t8 -57q0 -52 -19.5 -98t-54 -80t-81 -54t-101.5 -20q-56 0 -103.5 19.5t-82 53.5t-54.5 80t-20 99q0 51 18 96t50.5 79t77.5 54.5t99 22.5l-37 51l-99 -56l-50 87zM423 242
q0 34 -12 60.5t-25 42.5l-9 11q-29 19 -74 19q-62 0 -100 -37t-38 -96q0 -28 9.5 -52t27 -42t41 -28t52.5 -10q28 0 51.5 10.5t40.5 28.5t26.5 42t9.5 51z" />
    <glyph glyph-name="ntilde" unicode="&#xf1;" horiz-adv-x="620" 
d="M75 0v485h125v-39q28 23 62 36t75 13q51 0 94.5 -21t73.5 -57q24 -29 37 -68t13 -102v-247h-130v257q0 36 -7.5 56.5t-21.5 34.5q-27 27 -73 27q-21 0 -39.5 -6t-33.5 -15t-26.5 -19.5t-18.5 -19.5v-315h-130zM500 704q0 -27 -7 -51.5t-21.5 -42.5t-35 -29t-47.5 -11
q-23 0 -43 8t-38 17t-35 17t-33 8q-18 0 -28 -14.5t-12 -35.5l-80 16q0 27 7 51.5t21.5 42.5t35 29t47.5 11q22 0 42.5 -8t38.5 -17t35 -17t33 -8q18 0 28 14.5t12 35.5z" />
    <glyph glyph-name="ograve" unicode="&#xf2;" horiz-adv-x="586" 
d="M35 242q0 52 19.5 98.5t54 80.5t82 54t102.5 20t102.5 -20t82 -54t54 -80.5t19.5 -98.5q0 -53 -19.5 -98.5t-54 -80t-82 -54t-102.5 -19.5t-102.5 19.5t-82 54t-54 80t-19.5 98.5zM165 242q0 -27 9.5 -51t26 -42t40 -28.5t52.5 -10.5q28 0 52 10.5t40.5 28.5t26 42
t9.5 51t-9.5 51.5t-26 42.5t-40.5 28.5t-52 10.5q-29 0 -52.5 -10.5t-40 -28.5t-26 -42.5t-9.5 -51.5zM268 720l70 -160h-90l-120 160h140z" />
    <glyph glyph-name="oacute" unicode="&#xf3;" horiz-adv-x="586" 
d="M35 242q0 52 19.5 98.5t54 80.5t82 54t102.5 20t102.5 -20t82 -54t54 -80.5t19.5 -98.5q0 -53 -19.5 -98.5t-54 -80t-82 -54t-102.5 -19.5t-102.5 19.5t-82 54t-54 80t-19.5 98.5zM165 242q0 -27 9.5 -51t26 -42t40 -28.5t52.5 -10.5q28 0 52 10.5t40.5 28.5t26 42
t9.5 51t-9.5 51.5t-26 42.5t-40.5 28.5t-52 10.5q-29 0 -52.5 -10.5t-40 -28.5t-26 -42.5t-9.5 -51.5zM458 720l-120 -160h-90l70 160h140z" />
    <glyph glyph-name="ocircumflex" unicode="&#xf4;" horiz-adv-x="586" 
d="M35 242q0 52 19.5 98.5t54 80.5t82 54t102.5 20t102.5 -20t82 -54t54 -80.5t19.5 -98.5q0 -53 -19.5 -98.5t-54 -80t-82 -54t-102.5 -19.5t-102.5 19.5t-82 54t-54 80t-19.5 98.5zM165 242q0 -27 9.5 -51t26 -42t40 -28.5t52.5 -10.5q28 0 52 10.5t40.5 28.5t26 42
t9.5 51t-9.5 51.5t-26 42.5t-40.5 28.5t-52 10.5q-29 0 -52.5 -10.5t-40 -28.5t-26 -42.5t-9.5 -51.5zM363 720l100 -160h-90l-80 90l-80 -90h-90l100 160h140z" />
    <glyph glyph-name="otilde" unicode="&#xf5;" horiz-adv-x="586" 
d="M35 242q0 52 19.5 98.5t54 80.5t82 54t102.5 20t102.5 -20t82 -54t54 -80.5t19.5 -98.5q0 -53 -19.5 -98.5t-54 -80t-82 -54t-102.5 -19.5t-102.5 19.5t-82 54t-54 80t-19.5 98.5zM165 242q0 -27 9.5 -51t26 -42t40 -28.5t52.5 -10.5q28 0 52 10.5t40.5 28.5t26 42
t9.5 51t-9.5 51.5t-26 42.5t-40.5 28.5t-52 10.5q-29 0 -52.5 -10.5t-40 -28.5t-26 -42.5t-9.5 -51.5zM483 704q0 -27 -7 -51.5t-21.5 -42.5t-35 -29t-47.5 -11q-23 0 -43 8t-38 17t-35 17t-33 8q-18 0 -28 -14.5t-12 -35.5l-80 16q0 27 7 51.5t21.5 42.5t35 29t47.5 11
q22 0 42.5 -8t38.5 -17t35 -17t33 -8q18 0 28 14.5t12 35.5z" />
    <glyph glyph-name="odieresis" unicode="&#xf6;" horiz-adv-x="586" 
d="M35 242q0 52 19.5 98.5t54 80.5t82 54t102.5 20t102.5 -20t82 -54t54 -80.5t19.5 -98.5q0 -53 -19.5 -98.5t-54 -80t-82 -54t-102.5 -19.5t-102.5 19.5t-82 54t-54 80t-19.5 98.5zM165 242q0 -27 9.5 -51t26 -42t40 -28.5t52.5 -10.5q28 0 52 10.5t40.5 28.5t26 42
t9.5 51t-9.5 51.5t-26 42.5t-40.5 28.5t-52 10.5q-29 0 -52.5 -10.5t-40 -28.5t-26 -42.5t-9.5 -51.5zM108 642q0 33 23.5 55.5t56.5 22.5t56.5 -22.5t23.5 -55.5t-23.5 -55.5t-56.5 -22.5t-56.5 22.5t-23.5 55.5zM318 642q0 33 23.5 55.5t56.5 22.5t56.5 -22.5t23.5 -55.5
t-23.5 -55.5t-56.5 -22.5t-56.5 22.5t-23.5 55.5z" />
    <glyph glyph-name="divide" unicode="&#xf7;" horiz-adv-x="550" 
d="M505 335v-110h-460v110h460zM200 457q0 31 22 52t53 21t53 -21t22 -52t-22 -52t-53 -21t-53 21t-22 52zM200 103q0 31 22 52t53 21t53 -21t22 -52t-22 -52t-53 -21t-53 21t-22 52z" />
    <glyph glyph-name="oslash" unicode="&#xf8;" horiz-adv-x="586" 
d="M580 495l-82 -98q25 -32 39 -71.5t14 -83.5q0 -53 -19.5 -98.5t-54 -80t-82 -54t-102.5 -19.5q-67 0 -121 28l-23 -28h-143l81 98q-25 32 -38.5 71t-13.5 83q0 52 19.5 98.5t54 80.5t82 54t102.5 20q65 0 121 -28l23 28h143zM421 242q0 27 -9 51l-151 -180q15 -3 32 -3
q28 0 52 10.5t40.5 28.5t26 42t9.5 51zM165 242q0 -28 9 -50l150 179q-13 4 -31 4q-29 0 -52.5 -10.5t-40 -28.5t-26 -42.5t-9.5 -51.5z" />
    <glyph glyph-name="ugrave" unicode="&#xf9;" horiz-adv-x="610" 
d="M535 485v-485h-125v39q-29 -26 -62.5 -37.5t-68.5 -11.5q-51 0 -93.5 21.5t-71.5 56.5q-23 29 -36 67.5t-13 92.5v257h130v-262q0 -33 6.5 -51.5t17.5 -31.5q15 -17 34.5 -23.5t38.5 -6.5q21 0 38.5 6t32 15t25 19.5t17.5 19.5v315h130zM280 720l70 -160h-90l-120 160
h140z" />
    <glyph glyph-name="uacute" unicode="&#xfa;" horiz-adv-x="610" 
d="M535 485v-485h-125v39q-29 -26 -62.5 -37.5t-68.5 -11.5q-51 0 -93.5 21.5t-71.5 56.5q-23 29 -36 67.5t-13 92.5v257h130v-262q0 -33 6.5 -51.5t17.5 -31.5q15 -17 34.5 -23.5t38.5 -6.5q21 0 38.5 6t32 15t25 19.5t17.5 19.5v315h130zM470 720l-120 -160h-90l70 160
h140z" />
    <glyph glyph-name="ucircumflex" unicode="&#xfb;" horiz-adv-x="610" 
d="M535 485v-485h-125v39q-29 -26 -62.5 -37.5t-68.5 -11.5q-51 0 -93.5 21.5t-71.5 56.5q-23 29 -36 67.5t-13 92.5v257h130v-262q0 -33 6.5 -51.5t17.5 -31.5q15 -17 34.5 -23.5t38.5 -6.5q21 0 38.5 6t32 15t25 19.5t17.5 19.5v315h130zM370 720l100 -160h-90l-80 90
l-80 -90h-90l100 160h140z" />
    <glyph glyph-name="udieresis" unicode="&#xfc;" horiz-adv-x="610" 
d="M535 485v-485h-125v39q-29 -26 -62.5 -37.5t-68.5 -11.5q-51 0 -93.5 21.5t-71.5 56.5q-23 29 -36 67.5t-13 92.5v257h130v-262q0 -33 6.5 -51.5t17.5 -31.5q15 -17 34.5 -23.5t38.5 -6.5q21 0 38.5 6t32 15t25 19.5t17.5 19.5v315h130zM115 642q0 33 23.5 55.5
t56.5 22.5t56.5 -22.5t23.5 -55.5t-23.5 -55.5t-56.5 -22.5t-56.5 22.5t-23.5 55.5zM325 642q0 33 23.5 55.5t56.5 22.5t56.5 -22.5t23.5 -55.5t-23.5 -55.5t-56.5 -22.5t-56.5 22.5t-23.5 55.5z" />
    <glyph glyph-name="yacute" unicode="&#xfd;" horiz-adv-x="573" 
d="M93 -240l134 289l-217 436h143l142 -291l131 291h137l-334 -725h-136zM460 720l-120 -160h-90l70 160h140z" />
    <glyph glyph-name="thorn" unicode="&#xfe;" horiz-adv-x="615" 
d="M205 710v-260q57 45 137 45q49 0 92.5 -19.5t76 -53.5t51 -80t18.5 -100q0 -50 -16 -93.5t-45 -76.5q-32 -38 -81 -60t-103 -22q-73 0 -130 44v-274h-130v950h130zM205 170q19 -27 49.5 -43.5t67.5 -16.5q27 0 50.5 10t41 27.5t27 41.5t9.5 53q0 26 -9 50t-25 42.5
t-39.5 29.5t-51.5 11q-38 0 -69 -16.5t-51 -43.5v-145z" />
    <glyph glyph-name="ydieresis" unicode="&#xff;" horiz-adv-x="573" 
d="M93 -240l134 289l-217 436h143l142 -291l131 291h137l-334 -725h-136zM105 642q0 33 23.5 55.5t56.5 22.5t56.5 -22.5t23.5 -55.5t-23.5 -55.5t-56.5 -22.5t-56.5 22.5t-23.5 55.5zM315 642q0 33 23.5 55.5t56.5 22.5t56.5 -22.5t23.5 -55.5t-23.5 -55.5t-56.5 -22.5
t-56.5 22.5t-23.5 55.5z" />
    <glyph glyph-name="dotlessi" unicode="&#x131;" horiz-adv-x="280" 
d="M205 0h-130v485h130v-485z" />
    <glyph glyph-name="Lslash" unicode="&#x141;" horiz-adv-x="545" 
d="M85 266l-110 -64v132l110 64v302h135v-224l140 81v-132l-140 -81v-224h295v-120h-430v266z" />
    <glyph glyph-name="lslash" unicode="&#x142;" horiz-adv-x="280" 
d="M205 473l110 64v-132l-110 -64v-341h-130v266l-110 -64v132l110 64v312h130v-237z" />
    <glyph glyph-name="OE" unicode="&#x152;" horiz-adv-x="1095" 
d="M760 580v-145h225v-120h-225v-195h295v-120h-430v69q-46 -38 -104 -58.5t-126 -20.5q-79 0 -146 28.5t-115.5 77t-76 114t-27.5 140.5t27.5 140.5t76 114t115.5 77t146 28.5q68 0 126 -21t104 -58v69h420v-120h-285zM165 350q0 -50 17.5 -93.5t48 -76t72.5 -51.5t92 -19
q49 0 91.5 19t73 51.5t48 76t17.5 93.5q0 49 -17.5 93t-48 76.5t-73 51.5t-91.5 19q-50 0 -92 -19t-72.5 -51.5t-48 -76.5t-17.5 -93z" />
    <glyph glyph-name="oe" unicode="&#x153;" horiz-adv-x="921" 
d="M874 77q-35 -42 -88.5 -64.5t-110.5 -22.5q-62 0 -111 22t-81 64q-33 -38 -81.5 -62t-108.5 -24q-55 0 -102.5 19.5t-82 54t-54 80t-19.5 98.5q0 52 19.5 98.5t54 80.5t82 54t102.5 20q60 0 108 -23.5t81 -62.5q29 39 73 62.5t102 23.5q50 0 92 -20t72.5 -53.5
t47.5 -78.5t17 -96q0 -21 -3 -37h-336q3 -26 14 -47t28.5 -36t40 -23.5t48.5 -8.5q42 0 73.5 18.5t48.5 37.5zM165 242q0 -27 9.5 -51t26 -42t40 -28.5t52.5 -10.5q28 0 52 10.5t40.5 28.5t26 42t9.5 51t-9.5 51.5t-26 42.5t-40.5 28.5t-52 10.5q-29 0 -52.5 -10.5
t-40 -28.5t-26 -42.5t-9.5 -51.5zM753 305q-2 16 -9.5 31.5t-20 27.5t-29.5 19t-37 7q-41 0 -70 -26t-34 -59h200z" />
    <glyph glyph-name="Scaron" unicode="&#x160;" horiz-adv-x="535" 
d="M98 187q30 -33 73.5 -55t91.5 -22q45 0 73.5 25t28.5 63q0 34 -22 54.5t-55 36.5t-72.5 30t-74.5 35q-41 24 -70 62t-29 97q0 47 20 83.5t52 62t73.5 38.5t85.5 13q54 0 103.5 -14.5t99.5 -51.5l-70 -100q-21 20 -53.5 33t-67.5 13q-19 0 -38.5 -4.5t-35 -13.5t-25 -23.5
t-9.5 -34.5q0 -28 24 -46t60 -33t77.5 -31.5t77.5 -42t60 -64t24 -97.5q0 -47 -19.5 -85.5t-52 -66t-75.5 -43t-90 -15.5q-71 0 -135 27.5t-118 77.5zM195 760l-100 160h90l80 -90l80 90h90l-100 -160h-140z" />
    <glyph glyph-name="scaron" unicode="&#x161;" horiz-adv-x="460" 
d="M90 148q25 -23 60.5 -35.5t72.5 -12.5q26 0 44 11.5t18 29.5t-17.5 29.5t-43.5 21t-56.5 20t-56.5 27t-43.5 41.5t-17.5 64q0 35 15.5 63t41.5 47.5t59.5 30t69.5 10.5q24 0 48 -4t45.5 -11t40 -16t30.5 -18l-61 -94q-19 14 -43 23.5t-50 9.5q-27 0 -46.5 -10t-19.5 -29
q0 -16 17.5 -25.5t43.5 -18.5t56.5 -19.5t56.5 -28.5t43.5 -45t17.5 -69q0 -35 -16 -62.5t-42.5 -47t-61.5 -30t-73 -10.5q-51 0 -101.5 16.5t-93.5 48.5zM161 560l-100 160h90l80 -90l80 90h90l-100 -160h-140z" />
    <glyph glyph-name="Ydieresis" unicode="&#x178;" horiz-adv-x="625" 
d="M380 317v-317h-135v317l-240 383h154l154 -246l153 246h154zM128 842q0 33 23.5 55.5t56.5 22.5t56.5 -22.5t23.5 -55.5t-23.5 -55.5t-56.5 -22.5t-56.5 22.5t-23.5 55.5zM338 842q0 33 23.5 55.5t56.5 22.5t56.5 -22.5t23.5 -55.5t-23.5 -55.5t-56.5 -22.5t-56.5 22.5
t-23.5 55.5z" />
    <glyph glyph-name="Zcaron" unicode="&#x17d;" horiz-adv-x="615" 
d="M40 80l340 500h-310v120h490v-80l-341 -500h361v-120h-540v80zM240 760l-100 160h90l80 -90l80 90h90l-100 -160h-140z" />
    <glyph glyph-name="zcaron" unicode="&#x17e;" horiz-adv-x="530" 
d="M460 405l-235 -295h255v-110h-430v80l232 295h-212v110h390v-80zM195 560l-100 160h90l80 -90l80 90h90l-100 -160h-140z" />
    <glyph glyph-name="longs" unicode="&#x17f;" horiz-adv-x="411" 
d="M205 0h-130v505q0 60 15 100t44 67q29 28 70.5 43t91.5 15q28 0 58.5 -7.5t51.5 -18.5l-46 -104q-13 6 -30 10.5t-34 4.5q-19 0 -37.5 -6t-31.5 -20q-10 -11 -16 -26.5t-6 -42.5v-520z" />
    <glyph glyph-name="florin" unicode="&#x192;" horiz-adv-x="536" 
d="M-50 -121q10 -4 27.5 -9t38.5 -5q45 0 75.5 24t44.5 69q9 30 16.5 69t13.5 83t11.5 91t11.5 94h-160v110h174q6 41 12.5 76.5t14.5 61.5q15 48 39 82t55.5 55t69 30.5t79.5 9.5q21 0 49 -5.5t50 -15.5l-33 -108q-10 4 -27.5 9t-38.5 5q-45 0 -75.5 -24t-44.5 -69
q-8 -23 -13.5 -49.5t-10.5 -57.5h170v-110h-186q-6 -51 -12 -104t-12.5 -101.5t-13.5 -90.5t-16 -72q-15 -48 -39 -82t-55.5 -55t-69 -30.5t-79.5 -9.5q-21 0 -49 5.5t-50 15.5z" />
    <glyph glyph-name="circumflex" unicode="&#x2c6;" horiz-adv-x="480" 
d="M310 720l100 -160h-90l-80 90l-80 -90h-90l100 160h140z" />
    <glyph glyph-name="caron" unicode="&#x2c7;" horiz-adv-x="480" 
d="M170 560l-100 160h90l80 -90l80 90h90l-100 -160h-140z" />
    <glyph glyph-name="uni02C9" unicode="&#x2c9;" horiz-adv-x="500" 
d="M390 690v-100h-320v100h320z" />
    <glyph glyph-name="breve" unicode="&#x2d8;" horiz-adv-x="440" 
d="M370 720q0 -31 -12 -58.5t-32 -47.5t-47.5 -32t-58.5 -12t-58.5 12t-47.5 32t-32 47.5t-12 58.5h105q0 -19 13 -32t32 -13t32 13t13 32h105z" />
    <glyph glyph-name="dotaccent" unicode="&#x2d9;" horiz-adv-x="310" 
d="M70 657q0 35 25 59t60 24t60 -24t25 -59t-25 -59t-60 -24t-60 24t-25 59z" />
    <glyph glyph-name="ring" unicode="&#x2da;" horiz-adv-x="360" 
d="M70 650q0 23 8.5 43t23.5 35t35 23.5t43 8.5t43 -8.5t35 -23.5t23.5 -35t8.5 -43t-8.5 -43t-23.5 -35t-35 -23.5t-43 -8.5t-43 8.5t-35 23.5t-23.5 35t-8.5 43zM150 650q0 -13 8.5 -21.5t21.5 -8.5t21.5 8.5t8.5 21.5t-8.5 21.5t-21.5 8.5t-21.5 -8.5t-8.5 -21.5z" />
    <glyph glyph-name="ogonek" unicode="&#x2db;" horiz-adv-x="340" 
d="M223 10q-4 -5 -9.5 -13t-11 -18t-9 -21t-3.5 -21q0 -18 11 -30t29 -12q10 0 16.5 1.5t8.5 2.5l15 -109q-6 -3 -23 -6.5t-42 -3.5q-63 0 -99 34.5t-36 85.5q0 22 4.5 40t10.5 31.5t12.5 23.5t10.5 15h115z" />
    <glyph glyph-name="tilde" unicode="&#x2dc;" horiz-adv-x="520" 
d="M450 704q0 -27 -7 -51.5t-21.5 -42.5t-35 -29t-47.5 -11q-23 0 -43 8t-38 17t-35 17t-33 8q-18 0 -28 -14.5t-12 -35.5l-80 16q0 27 7 51.5t21.5 42.5t35 29t47.5 11q22 0 42.5 -8t38.5 -17t35 -17t33 -8q18 0 28 14.5t12 35.5z" />
    <glyph glyph-name="hungarumlaut" unicode="&#x2dd;" horiz-adv-x="570" 
d="M280 720l-120 -160h-90l70 160h140zM500 720l-120 -160h-90l70 160h140z" />
    <glyph glyph-name="uni0394" unicode="&#x394;" 
d="M250 700h90l240 -630v-70h-570v70zM143 110h304l-152 400z" />
    <glyph glyph-name="uni03A9" unicode="&#x3a9;" horiz-adv-x="750" 
d="M375 590q-49 0 -89.5 -19t-69.5 -52t-45 -78t-16 -96q0 -85 39 -151t104 -114v-80h-273v120h73q-29 39 -51 99t-22 131q0 75 26.5 140.5t73 114t111 77t139.5 28.5t139.5 -28.5t111 -77t73 -114t26.5 -140.5q0 -71 -22 -131t-51 -99h73v-120h-273v80q65 48 104 114
t39 151q0 51 -16 96t-45 78t-69.5 52t-89.5 19z" />
    <glyph glyph-name="uni03BC" unicode="&#x3bc;" horiz-adv-x="620" 
d="M545 485v-485h-125v39q-29 -26 -62.5 -37.5t-68.5 -11.5q-23 0 -45 5.5t-39 16.5v-252h-130v725h130v-262q0 -33 6.5 -51.5t17.5 -31.5q15 -17 34.5 -23.5t38.5 -6.5q21 0 38.5 6t32 15t25 19.5t17.5 19.5v315h130z" />
    <glyph glyph-name="pi" unicode="&#x3c0;" horiz-adv-x="577" 
d="M128 359q-18 -2 -35 -12t-28 -24l-70 72q15 23 35.5 37.5t45.5 23.5q16 6 40 10t53 4h398v-110h-100v-207q0 -16 1.5 -27.5t5.5 -21t10.5 -17.5t16.5 -17l-85 -80q-23 17 -36.5 34.5t-20.5 38t-9.5 44.5t-2.5 54v199h-99v-360h-120v359z" />
    <glyph glyph-name="endash" unicode="&#x2013;" horiz-adv-x="520" 
d="M505 315v-110h-490v110h490z" />
    <glyph glyph-name="emdash" unicode="&#x2014;" horiz-adv-x="820" 
d="M805 315v-110h-790v110h790z" />
    <glyph glyph-name="quoteleft" unicode="&#x2018;" horiz-adv-x="325" 
d="M50 405l120 295h95l-75 -295h-140z" />
    <glyph glyph-name="quoteright" unicode="&#x2019;" horiz-adv-x="325" 
d="M275 700l-120 -295h-95l75 295h140z" />
    <glyph glyph-name="quotesinglbase" unicode="&#x201a;" horiz-adv-x="325" 
d="M275 155l-120 -295h-95l75 295h140z" />
    <glyph glyph-name="quotedblleft" unicode="&#x201c;" horiz-adv-x="565" 
d="M290 405l120 295h95l-75 -295h-140zM50 405l120 295h95l-75 -295h-140z" />
    <glyph glyph-name="quotedblright" unicode="&#x201d;" horiz-adv-x="565" 
d="M275 700l-120 -295h-95l75 295h140zM515 700l-120 -295h-95l75 295h140z" />
    <glyph glyph-name="quotedblbase" unicode="&#x201e;" horiz-adv-x="565" 
d="M275 155l-120 -295h-95l75 295h140zM515 155l-120 -295h-95l75 295h140z" />
    <glyph glyph-name="dagger" unicode="&#x2020;" horiz-adv-x="550" 
d="M335 -200h-120v565h-170v110h170v225h120v-225h170v-110h-170v-565z" />
    <glyph glyph-name="daggerdbl" unicode="&#x2021;" horiz-adv-x="550" 
d="M505 206v-110h-170v-296h-120v296h-170v110h170v159h-170v110h170v225h120v-225h170v-110h-170v-159h170z" />
    <glyph glyph-name="bullet" unicode="&#x2022;" horiz-adv-x="600" 
d="M80 242q0 45 17.5 85t47.5 70t70 47.5t85 17.5t85 -17.5t70 -47.5t47.5 -70t17.5 -85t-17.5 -85t-47.5 -70t-70 -47.5t-85 -17.5t-85 17.5t-70 47.5t-47.5 70t-17.5 85z" />
    <glyph glyph-name="ellipsis" unicode="&#x2026;" horiz-adv-x="995" 
d="M110 75q0 37 25 61.5t62 24.5t62.5 -24.5t25.5 -61.5t-25.5 -61t-62.5 -24t-62 24t-25 61zM420 75q0 37 25 61.5t62 24.5t62.5 -24.5t25.5 -61.5t-25.5 -61t-62.5 -24t-62 24t-25 61zM730 75q0 37 25 61.5t62 24.5t62.5 -24.5t25.5 -61.5t-25.5 -61t-62.5 -24t-62 24
t-25 61z" />
    <glyph glyph-name="perthousand" unicode="&#x2030;" horiz-adv-x="1225" 
d="M535 175q0 38 14.5 72t40 59t60 39.5t75.5 14.5q38 0 71 -13t59 -36q25 23 58.5 36t71.5 13q40 0 75 -14.5t60.5 -39.5t40 -59t14.5 -72t-14.5 -72t-40 -59t-60.5 -39.5t-75 -14.5q-38 0 -71.5 13t-58.5 36q-26 -23 -59 -36t-71 -13q-41 0 -75.5 14.5t-60 39.5t-40 59
t-14.5 72zM50 525q0 38 14.5 72t40 59t60 39.5t75.5 14.5q40 0 75 -14.5t60.5 -39.5t40 -59t14.5 -72t-14.5 -72t-40 -59t-60.5 -39.5t-75 -14.5q-41 0 -75.5 14.5t-60 39.5t-40 59t-14.5 72zM310 525q0 31 -19 53t-51 22t-51 -22t-19 -53t19 -53t51 -22t51 22t19 53z
M795 175q0 31 -19 53t-51 22t-51 -22t-19 -53t19 -53t51 -22t51 22t19 53zM1055 175q0 31 -19 53t-51 22t-51 -22t-19 -53t19 -53t51 -22t51 22t19 53zM224 0l409 700h111l-409 -700h-111z" />
    <glyph glyph-name="guilsinglleft" unicode="&#x2039;" horiz-adv-x="379" 
d="M339 437l-156 -190l156 -190h-143l-126 155v70l126 155h143z" />
    <glyph glyph-name="guilsinglright" unicode="&#x203a;" horiz-adv-x="379" 
d="M183 437l126 -155v-70l-126 -155h-143l156 190l-156 190h143z" />
    <glyph glyph-name="fraction" unicode="&#x2044;" horiz-adv-x="530" 
d="M5 0l409 700h111l-409 -700h-111z" />
    <glyph glyph-name="uni2070" unicode="&#x2070;" horiz-adv-x="338" 
d="M130 520q0 -20 1.5 -38t6 -31.5t12 -22t19.5 -8.5t19.5 8.5t12 22t6 31.5t1.5 38q0 19 -1.5 37.5t-6 32t-12 22t-19.5 8.5t-19.5 -8.5t-12 -22t-6 -32t-1.5 -37.5zM30 520q0 37 7 71.5t23.5 61t43 42t65.5 15.5q40 0 67 -15.5t43 -42t22.5 -61t6.5 -71.5q0 -38 -6.5 -72
t-22.5 -60.5t-43 -42t-67 -15.5q-39 0 -65.5 15.5t-43 42t-23.5 60.5t-7 72z" />
    <glyph glyph-name="uni2074" unicode="&#x2074;" horiz-adv-x="350" 
d="M264 485h66v-75h-66v-70h-85v70h-159v50l184 240h60v-215zM179 485v58l-45 -58h45z" />
    <glyph glyph-name="uni2075" unicode="&#x2075;" horiz-adv-x="294" 
d="M76 436q8 -11 21 -18.5t30 -7.5q20 0 34.5 13t14.5 35t-15.5 35t-35.5 13q-9 0 -19 -3t-17 -8l-54 8l19 197h190v-80h-110l-3 -35h7q33 0 57.5 -11.5t41 -29.5t24.5 -40.5t8 -45.5q0 -58 -39.5 -93t-101.5 -35q-39 0 -69.5 14.5t-48.5 37.5z" />
    <glyph glyph-name="uni2076" unicode="&#x2076;" horiz-adv-x="330" 
d="M210 459q0 18 -12 31t-32 13q-11 0 -19.5 -3t-14.5 -8q-12 -15 -12 -33q0 -19 13 -31.5t33 -12.5q18 0 31 13t13 31zM182 582q30 0 52.5 -10.5t38.5 -27.5t24 -39t8 -46q0 -27 -11.5 -50.5t-31 -41t-45 -27.5t-54.5 -10q-30 0 -55.5 10t-43.5 27t-28.5 40.5t-10.5 49.5
q0 32 12.5 58.5t23.5 44.5l86 140h108z" />
    <glyph glyph-name="uni2077" unicode="&#x2077;" horiz-adv-x="285" 
d="M270 700v-50l-140 -310h-100l123 275h-133v85h250z" />
    <glyph glyph-name="uni2078" unicode="&#x2078;" horiz-adv-x="324" 
d="M282 601q0 -37 -25 -60q20 -15 31 -38.5t11 -50.5q0 -25 -10 -47.5t-28 -39t-43.5 -26t-55.5 -9.5t-55.5 9.5t-43.5 26t-28 39t-10 47.5q0 27 12 50t32 39q-11 11 -19 27.5t-8 35.5q0 21 9 40t25 34t38 23.5t48 8.5q27 0 49 -9t37.5 -24t24.5 -35t9 -41zM120 454
q0 -17 11 -28t31 -11t31 11t11 28t-11 28.5t-31 11.5t-31 -11.5t-11 -28.5zM135 597q0 -11 7.5 -19t19.5 -8t19.5 8t7.5 19t-7.5 19.5t-19.5 8.5t-19.5 -8.5t-7.5 -19.5z" />
    <glyph glyph-name="uni2079" unicode="&#x2079;" horiz-adv-x="330" 
d="M120 581q0 -18 12 -31t32 -13q11 0 19.5 3t14.5 8q12 15 12 33q0 19 -13 31.5t-33 12.5q-18 0 -31 -13t-13 -31zM148 458q-30 0 -52.5 10.5t-38.5 27.5t-24 39t-8 46q0 27 11 50.5t30.5 41t44.5 27.5t54 10q25 0 50.5 -8.5t45 -25t32 -40t12.5 -53.5q0 -32 -12.5 -58.5
t-23.5 -44.5l-86 -140h-108z" />
    <glyph glyph-name="uni2080" unicode="&#x2080;" horiz-adv-x="338" 
d="M130 180q0 -20 1.5 -38t6 -31.5t12 -22t19.5 -8.5t19.5 8.5t12 22t6 31.5t1.5 38q0 19 -1.5 37.5t-6 32t-12 22t-19.5 8.5t-19.5 -8.5t-12 -22t-6 -32t-1.5 -37.5zM30 180q0 37 7 71.5t23.5 61t43 42t65.5 15.5q40 0 67 -15.5t43 -42t22.5 -61t6.5 -71.5q0 -38 -6.5 -72
t-22.5 -60.5t-43 -42t-67 -15.5q-39 0 -65.5 15.5t-43 42t-23.5 60.5t-7 72z" />
    <glyph glyph-name="uni2081" unicode="&#x2081;" horiz-adv-x="265" 
d="M30 298l120 62h60v-360h-100v242l-80 -41v97z" />
    <glyph glyph-name="uni2082" unicode="&#x2082;" horiz-adv-x="312" 
d="M35 280q11 42 45.5 66t79.5 24q24 0 46 -8t38.5 -23t26 -36t9.5 -46q0 -27 -11.5 -51.5t-30.5 -47.5l-59 -73h108v-85h-257v50l131 159q21 27 21 43q0 11 -6.5 19.5t-19.5 8.5q-11 0 -19 -7.5t-12 -18.5z" />
    <glyph glyph-name="uni2083" unicode="&#x2083;" horiz-adv-x="296" 
d="M78 206l58 74h-114v80h230v-50l-60 -85q35 -14 54.5 -43.5t19.5 -64.5q0 -29 -12 -52t-31.5 -40t-46 -26t-54.5 -9q-35 0 -66 12t-56 37l59 60q6 -8 20.5 -17.5t39.5 -9.5q19 0 34 12t15 33q0 20 -15 33.5t-36 13.5q-11 0 -21 -2.5t-18 -5.5v50z" />
    <glyph glyph-name="uni2084" unicode="&#x2084;" horiz-adv-x="350" 
d="M264 145h66v-75h-66v-70h-85v70h-159v50l184 240h60v-215zM179 145v58l-45 -58h45z" />
    <glyph glyph-name="uni2085" unicode="&#x2085;" horiz-adv-x="294" 
d="M76 96q8 -11 21 -18.5t30 -7.5q20 0 34.5 13t14.5 35t-15.5 35t-35.5 13q-9 0 -19 -3t-17 -8l-54 8l19 197h190v-80h-110l-3 -35h7q33 0 57.5 -11.5t41 -29.5t24.5 -40.5t8 -45.5q0 -58 -39.5 -93t-101.5 -35q-39 0 -69.5 14.5t-48.5 37.5z" />
    <glyph glyph-name="uni2086" unicode="&#x2086;" horiz-adv-x="330" 
d="M210 119q0 18 -12 31t-32 13q-11 0 -19.5 -3t-14.5 -8q-12 -15 -12 -33q0 -19 13 -31.5t33 -12.5q18 0 31 13t13 31zM182 242q30 0 52.5 -10.5t38.5 -27.5t24 -39t8 -46q0 -27 -11.5 -50.5t-31 -41t-45 -27.5t-54.5 -10q-30 0 -55.5 10t-43.5 27t-28.5 40.5t-10.5 49.5
q0 32 12.5 58.5t23.5 44.5l86 140h108z" />
    <glyph glyph-name="uni2087" unicode="&#x2087;" horiz-adv-x="285" 
d="M270 360v-50l-140 -310h-100l123 275h-133v85h250z" />
    <glyph glyph-name="uni2088" unicode="&#x2088;" horiz-adv-x="324" 
d="M282 261q0 -37 -25 -60q20 -15 31 -38.5t11 -50.5q0 -25 -10 -47.5t-28 -39t-43.5 -26t-55.5 -9.5t-55.5 9.5t-43.5 26t-28 39t-10 47.5q0 27 12 50t32 39q-11 11 -19 27.5t-8 35.5q0 21 9 40t25 34t38 23.5t48 8.5q27 0 49 -9t37.5 -24t24.5 -35t9 -41zM120 114
q0 -17 11 -28t31 -11t31 11t11 28t-11 28.5t-31 11.5t-31 -11.5t-11 -28.5zM135 257q0 -11 7.5 -19t19.5 -8t19.5 8t7.5 19t-7.5 19.5t-19.5 8.5t-19.5 -8.5t-7.5 -19.5z" />
    <glyph glyph-name="uni2089" unicode="&#x2089;" horiz-adv-x="330" 
d="M120 241q0 -18 12 -31t32 -13q11 0 19.5 3t14.5 8q12 15 12 33q0 19 -13 31.5t-33 12.5q-18 0 -31 -13t-13 -31zM148 118q-30 0 -52.5 10.5t-38.5 27.5t-24 39t-8 46q0 27 11 50.5t30.5 41t44.5 27.5t54 10q25 0 50.5 -8.5t45 -25t32 -40t12.5 -53.5q0 -32 -12.5 -58.5
t-23.5 -44.5l-86 -140h-108z" />
    <glyph glyph-name="Euro" unicode="&#x20ac;" horiz-adv-x="650" 
d="M-5 485h91q17 49 45.5 90.5t67 71.5t85.5 46.5t101 16.5q74 0 132 -31.5t100 -85.5l-97 -79q-24 35 -57.5 55.5t-75.5 20.5q-51 0 -92 -27.5t-64 -77.5h235v-110h-265q-1 -6 -1 -12.5v-12.5v-13t1 -12h265v-110h-237q21 -50 63 -77.5t95 -27.5q51 0 89.5 24.5t63.5 66.5
l100 -75q-45 -61 -105.5 -98.5t-147.5 -37.5q-55 0 -102.5 16t-86.5 45.5t-67.5 71t-45.5 92.5h-90v110h70v50h-70v110z" />
    <glyph glyph-name="trademark" unicode="&#x2122;" horiz-adv-x="880" 
d="M357 700v-80h-100v-303h-87v303h-100v80h287zM609 483l148 217h53v-383h-89v183l-91 -131h-44l-91 131v-183h-89v383h54z" />
    <glyph glyph-name="Omega" unicode="&#x2126;" horiz-adv-x="750" 
d="M375 590q-49 0 -89.5 -19t-69.5 -52t-45 -78t-16 -96q0 -85 39 -151t104 -114v-80h-273v120h73q-29 39 -51 99t-22 131q0 75 26.5 140.5t73 114t111 77t139.5 28.5t139.5 -28.5t111 -77t73 -114t26.5 -140.5q0 -71 -22 -131t-51 -99h73v-120h-273v80q65 48 104 114
t39 151q0 51 -16 96t-45 78t-69.5 52t-89.5 19z" />
    <glyph glyph-name="arrowleft" unicode="&#x2190;" horiz-adv-x="716" 
d="M235 205l170 -170h-156l-189 190v70l189 190h156l-170 -170h421v-110h-421z" />
    <glyph glyph-name="arrowright" unicode="&#x2192;" horiz-adv-x="716" 
d="M60 205v110h421l-170 170h156l189 -190v-70l-189 -190h-156l170 170h-421z" />
    <glyph glyph-name="uni2196" unicode="&#x2196;" horiz-adv-x="605" 
d="M376 485l110 -110h-239l298 -298l-77 -77l-298 298v-238l-110 110v265l50 50h266z" />
    <glyph glyph-name="uni2197" unicode="&#x2197;" horiz-adv-x="605" 
d="M495 485l50 -50v-265l-110 -110v238l-298 -298l-77 77l298 298h-239l110 110h266z" />
    <glyph glyph-name="uni2198" unicode="&#x2198;" horiz-adv-x="605" 
d="M229 0l-110 110h239l-298 298l77 77l298 -298v238l110 -110v-265l-50 -50h-266z" />
    <glyph glyph-name="uni2199" unicode="&#x2199;" horiz-adv-x="605" 
d="M110 0l-50 50v265l110 110v-238l298 298l77 -77l-298 -298h239l-110 -110h-266z" />
    <glyph glyph-name="partialdiff" unicode="&#x2202;" horiz-adv-x="596" 
d="M131 710h151l185 -257q16 -22 32 -47t28.5 -52t20.5 -55t8 -57q0 -52 -19.5 -98t-54 -80t-81 -54t-101.5 -20q-56 0 -103.5 19.5t-82 53.5t-54.5 80t-20 99q0 51 18 96t50.5 79t77.5 54.5t99 22.5zM428 242q0 34 -12 60.5t-25 42.5l-9 11q-29 19 -74 19q-62 0 -100 -37
t-38 -96q0 -28 9.5 -52t27 -42t41 -28t52.5 -10q28 0 51.5 10.5t40.5 28.5t26.5 42t9.5 51z" />
    <glyph glyph-name="Delta" unicode="&#x2206;" 
d="M250 700h90l240 -630v-70h-570v70zM143 110h304l-152 400z" />
    <glyph glyph-name="product" unicode="&#x220f;" 
d="M575 700v-110h-100v-590h-120v590h-120v-590h-120v590h-100v110h560z" />
    <glyph glyph-name="summation" unicode="&#x2211;" horiz-adv-x="585" 
d="M184 110h251v100h110v-210h-550v70l274 290l-264 270v70h530v-210h-110v100h-227l192 -194v-70z" />
    <glyph glyph-name="minus" unicode="&#x2212;" horiz-adv-x="550" 
d="M505 335v-110h-460v110h460z" />
    <glyph glyph-name="uni2215" unicode="&#x2215;" horiz-adv-x="530" 
d="M5 0l409 700h111l-409 -700h-111z" />
    <glyph glyph-name="uni2219" unicode="&#x2219;" horiz-adv-x="375" 
d="M100 242q0 37 25 62.5t62 25.5t62.5 -25.5t25.5 -62.5t-25.5 -62t-62.5 -25t-62 25t-25 62z" />
    <glyph glyph-name="radical" unicode="&#x221a;" horiz-adv-x="610" 
d="M157 485l141 -306l186 521h116l-249 -700h-90l-175 375h-96v110h167z" />
    <glyph glyph-name="infinity" unicode="&#x221e;" horiz-adv-x="780" 
d="M755 277q0 -47 -16.5 -85t-44 -65t-64.5 -42t-77 -15q-60 0 -98.5 27t-64.5 67q-26 -40 -64.5 -67t-98.5 -27q-41 0 -77.5 15t-64 42t-44 65t-16.5 85t16.5 85t44 65t64 42t77.5 15q60 0 98.5 -27.5t64.5 -66.5q26 39 64.5 66.5t98.5 27.5q40 0 77 -15t64.5 -42t44 -65
t16.5 -85zM553 374q-18 0 -33 -7.5t-27 -20.5t-22.5 -31t-20.5 -38q10 -20 20.5 -38t22.5 -31t27 -20.5t33 -7.5q43 0 67.5 28t24.5 69t-24.5 69t-67.5 28zM227 180q36 0 59.5 28t43.5 69q-20 41 -43.5 69t-59.5 28q-43 0 -67.5 -28t-24.5 -69t24.5 -69t67.5 -28z" />
    <glyph glyph-name="integral" unicode="&#x222b;" horiz-adv-x="555" 
d="M-72 -121q10 -4 27.5 -9t38.5 -5q45 0 75.5 24t44.5 69q11 36 20 84t16 102.5t13.5 111t13 109.5t14 99t17.5 79q15 48 39 82t55.5 55t69 30.5t79.5 9.5q21 0 49 -5.5t50 -15.5l-33 -108q-10 4 -27.5 9t-38.5 5q-45 0 -75.5 -24t-44.5 -69q-11 -36 -20 -84t-16 -102
t-13.5 -111t-13 -110t-14 -99.5t-17.5 -78.5q-15 -48 -39 -82t-55.5 -55t-69 -30.5t-79.5 -9.5q-21 0 -49 5.5t-50 15.5z" />
    <glyph glyph-name="approxequal" unicode="&#x2248;" horiz-adv-x="570" 
d="M20 105q6 31 19.5 60.5t34.5 52t49.5 36t64.5 13.5t63.5 -13t49.5 -29t40.5 -29t36.5 -13q26 0 42.5 23t22.5 56l107 -27q-6 -31 -19.5 -60.5t-34.5 -52t-49.5 -36t-64.5 -13.5t-63.5 13t-49.5 29t-40.5 29t-36.5 13q-26 0 -42.5 -23t-22.5 -56zM20 325q6 31 19.5 60.5
t34.5 52t49.5 36t64.5 13.5t63.5 -13t49.5 -29t40.5 -29t36.5 -13q26 0 42.5 23t22.5 56l107 -27q-6 -31 -19.5 -60.5t-34.5 -52t-49.5 -36t-64.5 -13.5t-63.5 13t-49.5 29t-40.5 29t-36.5 13q-26 0 -42.5 -23t-22.5 -56z" />
    <glyph glyph-name="notequal" unicode="&#x2260;" horiz-adv-x="550" 
d="M433 440h72v-110h-134l-56 -100h190v-110h-252l-62 -110h-126l62 110h-82v110h144l56 100h-200v110h262l62 110h126z" />
    <glyph glyph-name="lessequal" unicode="&#x2264;" horiz-adv-x="550" 
d="M505 140v-110h-460v110h460zM287 349l218 -70v-116l-460 151v70l460 151v-116z" />
    <glyph glyph-name="greaterequal" unicode="&#x2265;" horiz-adv-x="550" 
d="M505 140v-110h-460v110h460zM45 419v116l460 -151v-70l-460 -151v116l218 70z" />
    <glyph glyph-name="lozenge" unicode="&#x25ca;" horiz-adv-x="560" 
d="M35 315v70l200 315h90l200 -315v-70l-200 -315h-90zM280 134l137 216l-137 215l-138 -215z" />
    <glyph glyph-name="uniFB00" unicode="&#xfb00;" horiz-adv-x="830" 
d="M775 600q-8 2 -19 3.5t-20 1.5q-49 0 -73 -28q-8 -11 -13 -27t-5 -50v-15h150v-110h-150v-375h-130v375h-240v-375h-130v375h-125v110h125v20q0 59 13 96t39 62t63.5 41t87.5 16q20 0 38.5 -2t38.5 -7l-20 -111q-8 2 -19 3.5t-20 1.5q-49 0 -73 -28q-8 -11 -13 -27
t-5 -50v-15h240v20q0 59 13 96t39 62t63.5 41t87.5 16q20 0 38.5 -2t38.5 -7z" />
    <glyph glyph-name="fi" unicode="&#xfb01;" horiz-adv-x="720" 
d="M405 600q-8 2 -19 3.5t-20 1.5q-49 0 -73 -28q-8 -11 -13 -27t-5 -50v-15h370v-485h-130v375h-240v-375h-130v375h-125v110h125v20q0 59 13 96t39 62t63.5 41t87.5 16q20 0 38.5 -2t38.5 -7zM495 657q0 35 25 59t60 24t60 -24t25 -59t-25 -59t-60 -24t-60 24t-25 59z" />
    <glyph glyph-name="fl" unicode="&#xfb02;" horiz-adv-x="720" 
d="M405 600q-8 2 -19 3.5t-20 1.5q-49 0 -73 -28q-8 -11 -13 -27t-5 -50v-15h240v225h130v-710h-130v375h-240v-375h-130v375h-125v110h125v20q0 59 13 96t39 62t63.5 41t87.5 16q20 0 38.5 -2t38.5 -7z" />
    <glyph glyph-name="uniFB03" unicode="&#xfb03;" horiz-adv-x="1090" 
d="M775 600q-8 2 -19 3.5t-20 1.5q-49 0 -73 -28q-8 -11 -13 -27t-5 -50v-15h370v-485h-130v375h-240v-375h-130v375h-240v-375h-130v375h-125v110h125v20q0 59 13 96t39 62t63.5 41t87.5 16q20 0 38.5 -2t38.5 -7l-20 -111q-8 2 -19 3.5t-20 1.5q-49 0 -73 -28
q-8 -11 -13 -27t-5 -50v-15h240v20q0 59 13 96t39 62t63.5 41t87.5 16q20 0 38.5 -2t38.5 -7zM865 657q0 35 25 59t60 24t60 -24t25 -59t-25 -59t-60 -24t-60 24t-25 59z" />
    <glyph glyph-name="uniFB04" unicode="&#xfb04;" horiz-adv-x="1090" 
d="M775 600q-8 2 -19 3.5t-20 1.5q-49 0 -73 -28q-8 -11 -13 -27t-5 -50v-15h240v225h130v-710h-130v375h-240v-375h-130v375h-240v-375h-130v375h-125v110h125v20q0 59 13 96t39 62t63.5 41t87.5 16q20 0 38.5 -2t38.5 -7l-20 -111q-8 2 -19 3.5t-20 1.5q-49 0 -73 -28
q-8 -11 -13 -27t-5 -50v-15h240v20q0 59 13 96t39 62t63.5 41t87.5 16q20 0 38.5 -2t38.5 -7z" />
    <glyph glyph-name="zero.numr" horiz-adv-x="338" 
d="M130 520q0 -20 1.5 -38t6 -31.5t12 -22t19.5 -8.5t19.5 8.5t12 22t6 31.5t1.5 38q0 19 -1.5 37.5t-6 32t-12 22t-19.5 8.5t-19.5 -8.5t-12 -22t-6 -32t-1.5 -37.5zM30 520q0 37 7 71.5t23.5 61t43 42t65.5 15.5q40 0 67 -15.5t43 -42t22.5 -61t6.5 -71.5q0 -38 -6.5 -72
t-22.5 -60.5t-43 -42t-67 -15.5q-39 0 -65.5 15.5t-43 42t-23.5 60.5t-7 72z" />
    <glyph glyph-name="one.numr" horiz-adv-x="260" 
d="M30 638l120 62h60v-360h-100v242l-80 -41v97z" />
    <glyph glyph-name="two.numr" horiz-adv-x="317" 
d="M35 620q11 42 45.5 66t79.5 24q24 0 46 -8t38.5 -23t26 -36t9.5 -46q0 -27 -11.5 -51.5t-30.5 -47.5l-59 -73h108v-85h-257v50l131 159q21 27 21 43q0 11 -6.5 19.5t-19.5 8.5q-11 0 -19 -7.5t-12 -18.5z" />
    <glyph glyph-name="three.numr" horiz-adv-x="296" 
d="M78 546l58 74h-114v80h230v-50l-60 -85q35 -14 54.5 -43.5t19.5 -64.5q0 -29 -12 -52t-31.5 -40t-46 -26t-54.5 -9q-35 0 -66 12t-56 37l59 60q6 -8 20.5 -17.5t39.5 -9.5q19 0 34 12t15 33q0 20 -15 33.5t-36 13.5q-11 0 -21 -2.5t-18 -5.5v50z" />
    <glyph glyph-name="four.numr" horiz-adv-x="350" 
d="M264 485h66v-75h-66v-70h-85v70h-159v50l184 240h60v-215zM179 485v58l-45 -58h45z" />
    <glyph glyph-name="five.numr" horiz-adv-x="294" 
d="M76 436q8 -11 21 -18.5t30 -7.5q20 0 34.5 13t14.5 35t-15.5 35t-35.5 13q-9 0 -19 -3t-17 -8l-54 8l19 197h190v-80h-110l-3 -35h7q33 0 57.5 -11.5t41 -29.5t24.5 -40.5t8 -45.5q0 -58 -39.5 -93t-101.5 -35q-39 0 -69.5 14.5t-48.5 37.5z" />
    <glyph glyph-name="six.numr" horiz-adv-x="330" 
d="M210 459q0 18 -12 31t-32 13q-11 0 -19.5 -3t-14.5 -8q-12 -15 -12 -33q0 -19 13 -31.5t33 -12.5q18 0 31 13t13 31zM182 582q30 0 52.5 -10.5t38.5 -27.5t24 -39t8 -46q0 -27 -11.5 -50.5t-31 -41t-45 -27.5t-54.5 -10q-30 0 -55.5 10t-43.5 27t-28.5 40.5t-10.5 49.5
q0 32 12.5 58.5t23.5 44.5l86 140h108z" />
    <glyph glyph-name="seven.numr" horiz-adv-x="285" 
d="M270 700v-50l-140 -310h-100l123 275h-133v85h250z" />
    <glyph glyph-name="eight.numr" horiz-adv-x="324" 
d="M282 601q0 -37 -25 -60q20 -15 31 -38.5t11 -50.5q0 -25 -10 -47.5t-28 -39t-43.5 -26t-55.5 -9.5t-55.5 9.5t-43.5 26t-28 39t-10 47.5q0 27 12 50t32 39q-11 11 -19 27.5t-8 35.5q0 21 9 40t25 34t38 23.5t48 8.5q27 0 49 -9t37.5 -24t24.5 -35t9 -41zM120 454
q0 -17 11 -28t31 -11t31 11t11 28t-11 28.5t-31 11.5t-31 -11.5t-11 -28.5zM135 597q0 -11 7.5 -19t19.5 -8t19.5 8t7.5 19t-7.5 19.5t-19.5 8.5t-19.5 -8.5t-7.5 -19.5z" />
    <glyph glyph-name="nine.numr" horiz-adv-x="330" 
d="M120 581q0 -18 12 -31t32 -13q11 0 19.5 3t14.5 8q12 15 12 33q0 19 -13 31.5t-33 12.5q-18 0 -31 -13t-13 -31zM148 458q-30 0 -52.5 10.5t-38.5 27.5t-24 39t-8 46q0 27 11 50.5t30.5 41t44.5 27.5t54 10q25 0 50.5 -8.5t45 -25t32 -40t12.5 -53.5q0 -32 -12.5 -58.5
t-23.5 -44.5l-86 -140h-108z" />
    <glyph glyph-name="zero.dnom" horiz-adv-x="338" 
d="M130 180q0 -20 1.5 -38t6 -31.5t12 -22t19.5 -8.5t19.5 8.5t12 22t6 31.5t1.5 38q0 19 -1.5 37.5t-6 32t-12 22t-19.5 8.5t-19.5 -8.5t-12 -22t-6 -32t-1.5 -37.5zM30 180q0 37 7 71.5t23.5 61t43 42t65.5 15.5q40 0 67 -15.5t43 -42t22.5 -61t6.5 -71.5q0 -38 -6.5 -72
t-22.5 -60.5t-43 -42t-67 -15.5q-39 0 -65.5 15.5t-43 42t-23.5 60.5t-7 72z" />
    <glyph glyph-name="one.dnom" horiz-adv-x="260" 
d="M30 298l120 62h60v-360h-100v242l-80 -41v97z" />
    <glyph glyph-name="two.dnom" horiz-adv-x="317" 
d="M35 280q11 42 45.5 66t79.5 24q24 0 46 -8t38.5 -23t26 -36t9.5 -46q0 -27 -11.5 -51.5t-30.5 -47.5l-59 -73h108v-85h-257v50l131 159q21 27 21 43q0 11 -6.5 19.5t-19.5 8.5q-11 0 -19 -7.5t-12 -18.5z" />
    <glyph glyph-name="three.dnom" horiz-adv-x="296" 
d="M78 206l58 74h-114v80h230v-50l-60 -85q35 -14 54.5 -43.5t19.5 -64.5q0 -29 -12 -52t-31.5 -40t-46 -26t-54.5 -9q-35 0 -66 12t-56 37l59 60q6 -8 20.5 -17.5t39.5 -9.5q19 0 34 12t15 33q0 20 -15 33.5t-36 13.5q-11 0 -21 -2.5t-18 -5.5v50z" />
    <glyph glyph-name="four.dnom" horiz-adv-x="350" 
d="M264 145h66v-75h-66v-70h-85v70h-159v50l184 240h60v-215zM179 145v58l-45 -58h45z" />
    <glyph glyph-name="five.dnom" horiz-adv-x="294" 
d="M76 96q8 -11 21 -18.5t30 -7.5q20 0 34.5 13t14.5 35t-15.5 35t-35.5 13q-9 0 -19 -3t-17 -8l-54 8l19 197h190v-80h-110l-3 -35h7q33 0 57.5 -11.5t41 -29.5t24.5 -40.5t8 -45.5q0 -58 -39.5 -93t-101.5 -35q-39 0 -69.5 14.5t-48.5 37.5z" />
    <glyph glyph-name="six.dnom" horiz-adv-x="330" 
d="M210 119q0 18 -12 31t-32 13q-11 0 -19.5 -3t-14.5 -8q-12 -15 -12 -33q0 -19 13 -31.5t33 -12.5q18 0 31 13t13 31zM182 242q30 0 52.5 -10.5t38.5 -27.5t24 -39t8 -46q0 -27 -11.5 -50.5t-31 -41t-45 -27.5t-54.5 -10q-30 0 -55.5 10t-43.5 27t-28.5 40.5t-10.5 49.5
q0 32 12.5 58.5t23.5 44.5l86 140h108z" />
    <glyph glyph-name="seven.dnom" horiz-adv-x="285" 
d="M270 360v-50l-140 -310h-100l123 275h-133v85h250z" />
    <glyph glyph-name="eight.dnom" horiz-adv-x="324" 
d="M282 261q0 -37 -25 -60q20 -15 31 -38.5t11 -50.5q0 -25 -10 -47.5t-28 -39t-43.5 -26t-55.5 -9.5t-55.5 9.5t-43.5 26t-28 39t-10 47.5q0 27 12 50t32 39q-11 11 -19 27.5t-8 35.5q0 21 9 40t25 34t38 23.5t48 8.5q27 0 49 -9t37.5 -24t24.5 -35t9 -41zM120 114
q0 -17 11 -28t31 -11t31 11t11 28t-11 28.5t-31 11.5t-31 -11.5t-11 -28.5zM135 257q0 -11 7.5 -19t19.5 -8t19.5 8t7.5 19t-7.5 19.5t-19.5 8.5t-19.5 -8.5t-7.5 -19.5z" />
    <glyph glyph-name="nine.dnom" horiz-adv-x="330" 
d="M120 241q0 -18 12 -31t32 -13q11 0 19.5 3t14.5 8q12 15 12 33q0 19 -13 31.5t-33 12.5q-18 0 -31 -13t-13 -31zM148 118q-30 0 -52.5 10.5t-38.5 27.5t-24 39t-8 46q0 27 11 50.5t30.5 41t44.5 27.5t54 10q25 0 50.5 -8.5t45 -25t32 -40t12.5 -53.5q0 -32 -12.5 -58.5
t-23.5 -44.5l-86 -140h-108z" />
    <glyph glyph-name="quotedbl.tf" 
d="M235 445h-90l-20 255h130zM445 445h-90l-20 255h130z" />
    <glyph glyph-name="numbersign.tf" 
d="M217 295h126l30 110h-126zM163 515l49 185h114l-49 -185h126l49 185h114l-49 -185h110v-110h-139l-31 -110h110l4 -110h-143l-49 -185h-114l49 185h-126l-49 -185h-114l49 185h-110v110h139l30 110h-110v110h140z" />
    <glyph glyph-name="dollar.tf" 
d="M138 187q30 -33 73.5 -55t91.5 -22q45 0 73.5 25t28.5 63q0 34 -22 54.5t-55 36.5t-72.5 30t-74.5 35q-41 24 -70 62t-29 97q0 36 12.5 66.5t33.5 54.5t49.5 40.5t60.5 25.5v115h120v-108q41 -5 80 -19.5t78 -43.5l-70 -100q-21 20 -53.5 33t-67.5 13q-19 0 -38.5 -4.5
t-35 -13.5t-25 -23.5t-9.5 -34.5q0 -28 24 -46t60 -33t77.5 -31.5t77.5 -42t60 -64t24 -97.5q0 -40 -14 -74t-39 -60.5t-58 -44.5t-71 -25v-111h-120v112q-52 10 -99 35t-89 63z" />
    <glyph glyph-name="quotesingle.tf" 
d="M340 445h-90l-20 255h130z" />
    <glyph glyph-name="plus.tf" 
d="M240 335v175h110v-175h175v-110h-175v-175h-110v175h-175v110h175z" />
    <glyph glyph-name="zero.tf" 
d="M405 350q0 49 -6 93t-19 76.5t-34 51.5t-51 19t-51 -19t-34 -51.5t-19 -76.5t-6 -93q0 -50 6 -93.5t19 -76t34 -51.5t51 -19t51 19t34 51.5t19 76t6 93.5zM50 350q0 75 13 140.5t42.5 114t76 77t113.5 28.5t113.5 -28.5t76 -77t42.5 -114t13 -140.5t-13 -140.5
t-42.5 -114t-76 -77t-113.5 -28.5t-113.5 28.5t-76 77t-42.5 114t-13 140.5z" />
    <glyph glyph-name="one.tf" 
d="M105 588l190 112h95v-580h155v-120h-490v120h200v424l-150 -84v128z" />
    <glyph glyph-name="two.tf" 
d="M65 548q11 36 32.5 66t50.5 51t64 33t74 12q45 0 85.5 -16t71.5 -44.5t49 -68.5t18 -87q0 -64 -27.5 -112.5t-62.5 -88.5l-149 -173h244v-120h-455v80l246 279q41 46 55 78t14 59q0 18 -7 35t-19 30t-28.5 21t-36.5 8q-35 0 -59.5 -22t-35.5 -57z" />
    <glyph glyph-name="three.tf" 
d="M140 180q22 -31 56 -50.5t74 -19.5q25 0 48.5 9.5t42 26t29.5 40t11 51.5q0 27 -10.5 50.5t-29 41t-44 27t-54.5 9.5q-44 0 -84 -20v80l131 155h-234v120h425v-80l-127 -156q72 -28 117 -87.5t45 -139.5q0 -56 -20.5 -101.5t-55.5 -77.5t-83 -50t-102 -18
q-66 0 -125.5 28t-106.5 81z" />
    <glyph glyph-name="four.tf" 
d="M470 700v-420h115v-120h-115v-160h-135v160h-325v80l365 460h95zM335 280v164l-131 -164h131z" />
    <glyph glyph-name="five.tf" 
d="M152 166q23 -24 54 -40t66 -16q49 0 84 32q18 17 28.5 40t10.5 50q0 29 -11.5 53.5t-31.5 41.5q-17 14 -38.5 21t-46.5 7q-26 0 -53 -9.5t-50 -28.5l-84 12l45 371h370v-120h-260l-11 -110q23 5 54 5q41 0 83.5 -11.5t79.5 -41.5q42 -33 65.5 -83t23.5 -107
q0 -52 -20.5 -96t-55.5 -76.5t-82 -51t-100 -18.5q-122 0 -212 90z" />
    <glyph glyph-name="six.tf" 
d="M428 700l-132 -223h9q50 0 94.5 -18t78 -50t53 -76.5t19.5 -96.5q0 -51 -20 -96t-53.5 -78t-79 -52.5t-96.5 -19.5q-49 0 -95 17t-82 48t-57.5 75t-21.5 99q0 52 20.5 99t48.5 94l165 278h149zM217 340q-14 -20 -28 -48t-14 -63q0 -25 10 -46.5t26.5 -37.5t39 -25.5
t48.5 -9.5t47.5 9.5t37.5 26t24.5 39t8.5 47.5t-9 47.5t-25.5 40t-39.5 27.5t-51 10q-38 0 -75 -17z" />
    <glyph glyph-name="seven.tf" 
d="M70 700h460v-80l-301 -620h-143l283 580h-299v120z" />
    <glyph glyph-name="eight.tf" 
d="M295 445q32 0 51 21t19 51t-19 51.5t-51 21.5t-51 -21.5t-19 -51.5t19 -51t51 -21zM295 110q25 0 46 8.5t36.5 22.5t24 33.5t8.5 42.5q0 22 -8.5 42t-24 34.5t-36.5 23t-46 8.5t-46 -8.5t-36.5 -23t-24 -34.5t-8.5 -42q0 -23 8.5 -42.5t24 -33.5t36.5 -22.5t46 -8.5z
M295 -10q-53 0 -98.5 17.5t-79 48.5t-53 72t-19.5 89q0 62 28.5 105t72.5 72q-23 20 -39.5 50t-16.5 73q0 40 15.5 75t43 61.5t65 41.5t81.5 15t81.5 -15t65 -41.5t43 -61.5t15.5 -75q0 -43 -16.5 -73t-39.5 -50q44 -29 72.5 -72t28.5 -105q0 -48 -19.5 -89t-53 -72
t-79.5 -48.5t-98 -17.5z" />
    <glyph glyph-name="nine.tf" 
d="M162 0l132 223h-9q-50 0 -94.5 18t-78 50t-53 76t-19.5 97q0 51 20 96t53.5 78t79 52.5t96.5 19.5q49 0 95 -17t82 -48t57.5 -75t21.5 -99q0 -52 -20.5 -99t-48.5 -94l-165 -278h-149zM373 360q14 20 28 48t14 63q0 25 -10 46.5t-26.5 37.5t-39.5 25.5t-48 9.5
q-26 0 -47.5 -9.5t-37.5 -26t-24.5 -39t-8.5 -47.5t9 -47.5t25.5 -40t39.5 -27.5t51 -10q38 0 75 17z" />
    <glyph glyph-name="less.tf" 
d="M525 164v-119l-460 200v70l460 200v-119l-266 -116z" />
    <glyph glyph-name="equal.tf" 
d="M525 230v-110h-460v110h460zM525 440v-110h-460v110h460z" />
    <glyph glyph-name="greater.tf" 
d="M331 280l-266 116v119l460 -200v-70l-460 -200v119z" />
    <glyph glyph-name="asciicircum.tf" 
d="M250 700h90l185 -350h-124l-106 201l-106 -201h-124z" />
    <glyph glyph-name="asciitilde.tf" 
d="M30 215q6 31 19.5 60.5t34.5 52t49.5 36t64.5 13.5t63.5 -13t49.5 -29t40.5 -29t36.5 -13q26 0 42.5 23t22.5 56l107 -27q-6 -31 -19.5 -60.5t-34.5 -52t-49.5 -36t-64.5 -13.5t-63.5 13t-49.5 29t-40.5 29t-36.5 13q-26 0 -42.5 -23t-22.5 -56z" />
    <glyph glyph-name="cent.tf" 
d="M195 242q0 -29 10 -53t27.5 -41.5t42 -27.5t54.5 -10q40 0 70 20t46 44l100 -75q-35 -46 -76 -71.5t-92 -33.5v-109h-120v114q-43 10 -78 32.5t-60.5 54.5t-39.5 72t-14 84t14 83.5t39.5 71.5t61 55t77.5 34v114h120v-110q48 -9 87 -33t66 -59l-92 -81q-20 26 -48.5 42
t-63.5 16q-28 0 -52 -10.5t-41.5 -28.5t-27.5 -42t-10 -52z" />
    <glyph glyph-name="sterling.tf" 
d="M409 405v-110h-97q2 -11 3 -22t1 -25q0 -43 -13 -75t-27 -53h274v-120h-495v80q62 20 96.5 64t34.5 103q0 11 -1 22.5t-4 25.5h-111v110h66q-9 22 -14.5 47t-5.5 56q0 42 17 79t46 64t67.5 43t81.5 16q76 0 125.5 -38t72.5 -98l-113 -44q-9 24 -30 42t-51 18
q-36 0 -61 -23.5t-25 -58.5q0 -26 8.5 -51.5t19.5 -51.5h135z" />
    <glyph glyph-name="currency.tf" 
d="M84 351q0 54 26 100l-80 80l85 85l80 -80q46 26 100 26q55 0 101 -26l79 80l85 -85l-79 -80q25 -47 25 -100q0 -54 -25 -101l79 -79l-85 -85l-79 79q-47 -25 -101 -25q-53 0 -100 25l-80 -79l-85 85l80 79q-26 46 -26 101zM214 351q0 -34 23.5 -57.5t57.5 -23.5
t57.5 23.5t23.5 57.5t-23.5 57.5t-57.5 23.5t-57.5 -23.5t-23.5 -57.5z" />
    <glyph glyph-name="yen.tf" 
d="M34 325h188l-32 50h-156v110h87l-134 215h154l154 -246l153 246h154l-135 -215h88v-110h-157l-31 -50h188v-110h-193v-215h-135v215h-193v110z" />
    <glyph glyph-name="section.tf" 
d="M550 215q0 -46 -19 -84t-51 -66q14 -20 22 -44t8 -54q0 -47 -20 -83.5t-52 -62t-74 -38.5t-85 -13q-54 0 -103.5 14.5t-99.5 51.5l70 100q21 -20 53.5 -33t67.5 -13q19 0 38.5 4.5t35 13.5t25 23.5t9.5 34.5q0 28 -24.5 45.5t-60.5 32t-79 29.5t-79 39t-60.5 60.5
t-24.5 92.5q0 46 19 83.5t51 65.5q-14 20 -22 44t-8 55q0 47 20 83.5t52 62t73.5 38.5t85.5 13q54 0 103.5 -14.5t99.5 -51.5l-70 -100q-21 20 -53.5 33t-67.5 13q-19 0 -38.5 -4.5t-35 -13.5t-25 -23.5t-9.5 -34.5q0 -28 24.5 -45.5t60.5 -32t79 -29.5t79 -39t60.5 -60.5
t24.5 -92.5zM415 213q0 29 -18 46.5t-46.5 30t-63.5 22.5t-68 25q-37 -25 -37 -70q0 -29 18 -46.5t46.5 -30t63 -23t68.5 -25.5q17 12 27 30t10 41z" />
    <glyph glyph-name="logicalnot.tf" 
d="M525 120h-110v210h-350v110h460v-320z" />
    <glyph glyph-name="plusminus.tf" 
d="M65 294v110h175v126h110v-126h175v-110h-175v-126h-110v126h-175zM525 140v-110h-460v110h460z" />
    <glyph glyph-name="mu.tf" 
d="M530 485v-485h-125v39q-29 -26 -62.5 -37.5t-68.5 -11.5q-23 0 -45 5.5t-39 16.5v-252h-130v725h130v-262q0 -33 6.5 -51.5t17.5 -31.5q15 -17 34.5 -23.5t38.5 -6.5q21 0 38.5 6t32 15t25 19.5t17.5 19.5v315h130z" />
    <glyph glyph-name="multiply.tf" 
d="M295 358l145 145l78 -78l-145 -145l145 -145l-78 -78l-145 145l-145 -145l-78 78l145 145l-145 145l78 78z" />
    <glyph glyph-name="divide.tf" 
d="M525 335v-110h-460v110h460zM220 457q0 31 22 52t53 21t53 -21t22 -52t-22 -52t-53 -21t-53 21t-22 52zM220 103q0 31 22 52t53 21t53 -21t22 -52t-22 -52t-53 -21t-53 21t-22 52z" />
    <glyph glyph-name="florin.tf" 
d="M-42 -121q10 -4 27.5 -9t38.5 -5q45 0 75.5 24t44.5 69q9 30 16.5 69t13.5 83t11.5 91t11.5 94h-160v110h174q6 41 12.5 76.5t14.5 61.5q15 48 39 82t55.5 55t69 30.5t79.5 9.5q21 0 49 -5.5t50 -15.5l-33 -108q-10 4 -27.5 9t-38.5 5q-45 0 -75.5 -24t-44.5 -69
q-8 -23 -13.5 -49.5t-10.5 -57.5h170v-110h-186q-6 -51 -12 -104t-12.5 -101.5t-13.5 -90.5t-16 -72q-15 -48 -39 -82t-55.5 -55t-69 -30.5t-79.5 -9.5q-21 0 -49 5.5t-50 15.5z" />
    <glyph glyph-name="pi.tf" 
d="M142 359q-18 -2 -35 -12t-28 -24l-70 72q15 23 35.5 37.5t45.5 23.5q16 6 40 10t53 4h398v-110h-100v-207q0 -16 1.5 -27.5t5.5 -21t10.5 -17.5t16.5 -17l-85 -80q-23 17 -36.5 34.5t-20.5 38t-9.5 44.5t-2.5 54v199h-99v-360h-120v359z" />
    <glyph glyph-name="Euro.tf" 
d="M-25 485h91q17 49 45.5 90.5t67 71.5t85.5 46.5t101 16.5q74 0 132 -31.5t100 -85.5l-97 -79q-24 35 -57.5 55.5t-75.5 20.5q-51 0 -92 -27.5t-64 -77.5h235v-110h-265q-1 -6 -1 -12.5v-12.5v-13t1 -12h265v-110h-237q21 -50 63 -77.5t95 -27.5q51 0 89.5 24.5t63.5 66.5
l100 -75q-45 -61 -105.5 -98.5t-147.5 -37.5q-55 0 -102.5 16t-86.5 45.5t-67.5 71t-45.5 92.5h-90v110h70v50h-70v110z" />
    <glyph glyph-name="partialdiff.tf" 
d="M128 710h151l185 -257q16 -22 32 -47t28.5 -52t20.5 -55t8 -57q0 -52 -19.5 -98t-54 -80t-81 -54t-101.5 -20q-56 0 -103.5 19.5t-82 53.5t-54.5 80t-20 99q0 51 18 96t50.5 79t77.5 54.5t99 22.5zM425 242q0 34 -12 60.5t-25 42.5l-9 11q-29 19 -74 19q-62 0 -100 -37
t-38 -96q0 -28 9.5 -52t27 -42t41 -28t52.5 -10q28 0 51.5 10.5t40.5 28.5t26.5 42t9.5 51z" />
    <glyph glyph-name="Delta.tf" 
d="M250 700h90l240 -630v-70h-570v70zM143 110h304l-152 400z" />
    <glyph glyph-name="product.tf" 
d="M575 700v-110h-100v-590h-120v590h-120v-590h-120v590h-100v110h560z" />
    <glyph glyph-name="summation.tf" 
d="M199 110h251v100h110v-210h-550v70l274 290l-264 270v70h530v-210h-110v100h-227l192 -194v-70z" />
    <glyph glyph-name="minus.tf" 
d="M525 335v-110h-460v110h460z" />
    <glyph glyph-name="radical.tf" 
d="M147 485l141 -306l186 521h116l-249 -700h-90l-175 375h-96v110h167z" />
    <glyph glyph-name="integral.tf" 
d="M-42 -121q10 -4 27.5 -9t38.5 -5q45 0 75.5 24t44.5 69q11 36 20 84t16 102.5t13.5 111t13 109.5t14 99t17.5 79q15 48 39 82t55.5 55t69 30.5t79.5 9.5q21 0 49 -5.5t50 -15.5l-33 -108q-10 4 -27.5 9t-38.5 5q-45 0 -75.5 -24t-44.5 -69q-11 -36 -20 -84t-16 -102
t-13.5 -111t-13 -110t-14 -99.5t-17.5 -78.5q-15 -48 -39 -82t-55.5 -55t-69 -30.5t-79.5 -9.5q-21 0 -49 5.5t-50 15.5z" />
    <glyph glyph-name="approxequal.tf" 
d="M30 105q6 31 19.5 60.5t34.5 52t49.5 36t64.5 13.5t63.5 -13t49.5 -29t40.5 -29t36.5 -13q26 0 42.5 23t22.5 56l107 -27q-6 -31 -19.5 -60.5t-34.5 -52t-49.5 -36t-64.5 -13.5t-63.5 13t-49.5 29t-40.5 29t-36.5 13q-26 0 -42.5 -23t-22.5 -56zM30 325q6 31 19.5 60.5
t34.5 52t49.5 36t64.5 13.5t63.5 -13t49.5 -29t40.5 -29t36.5 -13q26 0 42.5 23t22.5 56l107 -27q-6 -31 -19.5 -60.5t-34.5 -52t-49.5 -36t-64.5 -13.5t-63.5 13t-49.5 29t-40.5 29t-36.5 13q-26 0 -42.5 -23t-22.5 -56z" />
    <glyph glyph-name="notequal.tf" 
d="M453 440h72v-110h-134l-56 -100h190v-110h-252l-62 -110h-126l62 110h-82v110h144l56 100h-200v110h262l62 110h126z" />
    <glyph glyph-name="lessequal.tf" 
d="M525 140v-110h-460v110h460zM307 349l218 -70v-116l-460 151v70l460 151v-116z" />
    <glyph glyph-name="greaterequal.tf" 
d="M525 140v-110h-460v110h460zM65 419v116l460 -151v-70l-460 -151v116l218 70z" />
    <glyph glyph-name="lozenge.tf" 
d="M50 315v70l200 315h90l200 -315v-70l-200 -315h-90zM295 134l137 216l-137 215l-138 -215z" />
    <glyph glyph-name="parenleft.case" horiz-adv-x="455" 
d="M260 350q0 -108 31 -209t88 -183l-97 -68q-69 98 -105.5 215t-36.5 245t36.5 245t105.5 215l97 -68q-57 -82 -88 -183t-31 -209z" />
    <glyph glyph-name="parenright.case" horiz-adv-x="455" 
d="M195 350q0 108 -31 209t-88 183l97 68q69 -98 105.5 -215t36.5 -245t-36.5 -245t-105.5 -215l-97 68q57 82 88 183t31 209z" />
    <glyph glyph-name="hyphen.case" horiz-adv-x="470" 
d="M400 430v-110h-330v110h330z" />
    <glyph glyph-name="at.case" horiz-adv-x="1000" 
d="M382 350q0 -24 8.5 -44.5t23.5 -36.5t36 -25t47 -9q29 0 53.5 11t37.5 27q-1 10 -1.5 20.5t-0.5 23.5v112q-14 15 -37.5 25.5t-51.5 10.5q-26 0 -47 -9t-36 -25t-23.5 -36.5t-8.5 -44.5zM745 135q-35 0 -65.5 14.5t-52.5 38.5q-18 -17 -52 -35t-85 -18q-35 0 -73.5 13.5
t-70.5 40.5t-53 67.5t-21 93.5q0 51 19.5 91t50.5 67.5t67.5 42t71.5 14.5q27 0 55 -7t54 -24v21h106v-241q0 -23 2.5 -35t7.5 -21q6 -10 16 -16.5t26 -6.5q22 0 36.5 14t22 35t10.5 45.5t3 45.5q0 67 -26 123t-69.5 96.5t-101 63t-119.5 22.5q-67 0 -126 -25.5t-103 -70.5
t-69.5 -105t-25.5 -129q0 -68 25 -128t68.5 -105t102 -71t124.5 -26q56 0 106.5 16.5t91.5 48.5l62 -91q-51 -38 -115 -61t-138 -23q-92 0 -171.5 34.5t-138.5 94t-93 139.5t-34 172q0 91 33.5 171t91.5 140t137 94.5t171 34.5q85 0 162 -31t136 -86.5t94 -131.5t35 -166
q0 -48 -11 -91.5t-33.5 -76.5t-57.5 -52.5t-83 -19.5z" />
    <glyph glyph-name="bracketleft.case" horiz-adv-x="455" 
d="M140 800h275v-115h-155v-670h155v-115h-275v900z" />
    <glyph glyph-name="bracketright.case" horiz-adv-x="455" 
d="M315 -100h-275v115h155v670h-155v115h275v-900z" />
    <glyph glyph-name="braceleft.case" horiz-adv-x="455" 
d="M187 350q13 -5 26.5 -12t23.5 -19.5t16.5 -33t6.5 -52.5q0 -40 -5 -76.5t-5 -73.5q0 -40 22 -54t54 -14h39v-115h-30q-97 0 -151 44.5t-54 134.5q0 44 5 83.5t5 79.5q0 38 -24 53t-66 15v80q42 0 66 15t24 53q0 40 -5 79.5t-5 83.5q0 90 54 134.5t151 44.5h30v-115h-39
q-32 0 -54 -14t-22 -54q0 -37 5 -73.5t5 -76.5q0 -32 -6.5 -52.5t-16.5 -33t-23.5 -19.5t-26.5 -12z" />
    <glyph glyph-name="bar.case" horiz-adv-x="240" 
d="M180 -100h-120v900h120v-900z" />
    <glyph glyph-name="braceright.case" horiz-adv-x="455" 
d="M268 350q-14 5 -27 12t-23 19.5t-16.5 33t-6.5 52.5q0 40 5 76.5t5 73.5q0 40 -22 54t-54 14h-39v115h30q97 0 151 -44.5t54 -134.5q0 -44 -5 -83.5t-5 -79.5q0 -38 24 -53t66 -15v-80q-42 0 -66 -15t-24 -53q0 -40 5 -79.5t5 -83.5q0 -90 -54 -134.5t-151 -44.5h-30v115
h39q32 0 54 14t22 54q0 37 -5 73.5t-5 76.5q0 32 6.5 52.5t16.5 33t23 19.5t27 12z" />
    <glyph glyph-name="guillemotleft.case" horiz-adv-x="659" 
d="M339 527l-156 -190l156 -190h-143l-126 155v70l126 155h143zM619 527l-156 -190l156 -190h-143l-126 155v70l126 155h143z" />
    <glyph glyph-name="periodcentered.case" horiz-adv-x="375" 
d="M100 350q0 37 25 61.5t62 24.5t62.5 -24.5t25.5 -61.5t-25.5 -61t-62.5 -24t-62 24t-25 61z" />
    <glyph glyph-name="guillemotright.case" horiz-adv-x="659" 
d="M463 527l126 -155v-70l-126 -155h-143l156 190l-156 190h143zM183 527l126 -155v-70l-126 -155h-143l156 190l-156 190h143z" />
    <glyph glyph-name="endash.case" horiz-adv-x="520" 
d="M505 430v-110h-490v110h490z" />
    <glyph glyph-name="emdash.case" horiz-adv-x="820" 
d="M805 430v-110h-790v110h790z" />
    <glyph glyph-name="bullet.case" horiz-adv-x="600" 
d="M80 350q0 45 17.5 85t47.5 70t70 47.5t85 17.5t85 -17.5t70 -47.5t47.5 -70t17.5 -85t-17.5 -85t-47.5 -70t-70 -47.5t-85 -17.5t-85 17.5t-70 47.5t-47.5 70t-17.5 85z" />
    <glyph glyph-name="guilsinglleft.case" horiz-adv-x="379" 
d="M339 527l-156 -190l156 -190h-143l-126 155v70l126 155h143z" />
    <glyph glyph-name="guilsinglright.case" horiz-adv-x="379" 
d="M183 527l126 -155v-70l-126 -155h-143l156 190l-156 190h143z" />
    <glyph glyph-name="zero.zero" horiz-adv-x="600" 
d="M55 350q0 75 13 140.5t42.5 114t76 77t113.5 28.5t113.5 -28.5t76 -77t42.5 -114t13 -140.5t-13 -140.5t-42.5 -114t-76 -77t-113.5 -28.5t-113.5 28.5t-76 77t-42.5 114t-13 140.5zM300 590q-30 0 -51 -19t-34 -51.5t-19 -76.5t-6 -93v-33.5t2 -31.5l164 281
q-24 24 -56 24zM410 350q0 33 -3 63l-163 -280q23 -23 56 -23q30 0 51 19t34 51.5t19 76t6 93.5z" />
    <glyph glyph-name="uni2070.zero" horiz-adv-x="338" 
d="M30 520q0 37 7 71.5t23.5 61t43 42t65.5 15.5q40 0 67 -15.5t43 -42t22.5 -61t6.5 -71.5q0 -38 -6.5 -72t-22.5 -60.5t-43 -42t-67 -15.5q-39 0 -65.5 15.5t-43 42t-23.5 60.5t-7 72zM169 420q24 0 31.5 31t7.5 74l-57 -98q7 -7 18 -7zM186 614q-8 6 -17 6
q-12 0 -19.5 -8.5t-12 -22.5t-6 -32.5t-1.5 -39.5z" />
    <glyph glyph-name="uni2080.zero" horiz-adv-x="338" 
d="M30 180q0 37 7 71.5t23.5 61t43 42t65.5 15.5q40 0 67 -15.5t43 -42t22.5 -61t6.5 -71.5q0 -38 -6.5 -72t-22.5 -60.5t-43 -42t-67 -15.5q-39 0 -65.5 15.5t-43 42t-23.5 60.5t-7 72zM169 80q24 0 31.5 31t7.5 74l-57 -98q7 -7 18 -7zM186 274q-8 6 -17 6
q-12 0 -19.5 -8.5t-12 -22.5t-6 -32.5t-1.5 -39.5z" />
    <glyph glyph-name="zero.numr.zero" horiz-adv-x="338" 
d="M30 520q0 37 7 71.5t23.5 61t43 42t65.5 15.5q40 0 67 -15.5t43 -42t22.5 -61t6.5 -71.5q0 -38 -6.5 -72t-22.5 -60.5t-43 -42t-67 -15.5q-39 0 -65.5 15.5t-43 42t-23.5 60.5t-7 72zM169 420q24 0 31.5 31t7.5 74l-57 -98q7 -7 18 -7zM186 614q-8 6 -17 6
q-12 0 -19.5 -8.5t-12 -22.5t-6 -32.5t-1.5 -39.5z" />
    <glyph glyph-name="zero.dnom.zero" horiz-adv-x="338" 
d="M30 180q0 37 7 71.5t23.5 61t43 42t65.5 15.5q40 0 67 -15.5t43 -42t22.5 -61t6.5 -71.5q0 -38 -6.5 -72t-22.5 -60.5t-43 -42t-67 -15.5q-39 0 -65.5 15.5t-43 42t-23.5 60.5t-7 72zM169 80q24 0 31.5 31t7.5 74l-57 -98q7 -7 18 -7zM186 274q-8 6 -17 6
q-12 0 -19.5 -8.5t-12 -22.5t-6 -32.5t-1.5 -39.5z" />
    <glyph glyph-name="zero.tf.zero" 
d="M50 350q0 75 13 140.5t42.5 114t76 77t113.5 28.5t113.5 -28.5t76 -77t42.5 -114t13 -140.5t-13 -140.5t-42.5 -114t-76 -77t-113.5 -28.5t-113.5 28.5t-76 77t-42.5 114t-13 140.5zM295 590q-30 0 -51 -19t-34 -51.5t-19 -76.5t-6 -93v-33.5t2 -31.5l164 281
q-24 24 -56 24zM405 350q0 33 -3 63l-163 -280q23 -23 56 -23q30 0 51 19t34 51.5t19 76t6 93.5z" />
    <glyph glyph-name="a.ss01" horiz-adv-x="535" 
d="M340 200q-16 9 -32.5 12t-32.5 3q-15 0 -32.5 -3t-32.5 -10t-25 -19t-10 -31q0 -24 19.5 -38t45.5 -14q27 0 53 12t47 38v50zM345 0v39q-13 -17 -46.5 -33t-78.5 -16q-37 0 -69 12.5t-55.5 34.5t-37 51.5t-13.5 63.5q0 40 16 71t43.5 52.5t63.5 33t76 11.5q24 0 49 -5
t47 -16q0 24 -8.5 40.5t-22 26.5t-31.5 14.5t-37 4.5q-35 0 -71 -13.5t-58 -26.5l-42 100q24 16 72 33t111 17q52 0 97 -19t76 -57q21 -26 32.5 -59t11.5 -90v-270h-125z" />
    <glyph glyph-name="agrave.ss01" horiz-adv-x="535" 
d="M340 200q-16 9 -32.5 12t-32.5 3q-15 0 -32.5 -3t-32.5 -10t-25 -19t-10 -31q0 -24 19.5 -38t45.5 -14q27 0 53 12t47 38v50zM345 0v39q-13 -17 -46.5 -33t-78.5 -16q-37 0 -69 12.5t-55.5 34.5t-37 51.5t-13.5 63.5q0 40 16 71t43.5 52.5t63.5 33t76 11.5q24 0 49 -5
t47 -16q0 24 -8.5 40.5t-22 26.5t-31.5 14.5t-37 4.5q-35 0 -71 -13.5t-58 -26.5l-42 100q24 16 72 33t111 17q52 0 97 -19t76 -57q21 -26 32.5 -59t11.5 -90v-270h-125zM260 720l70 -160h-90l-120 160h140z" />
    <glyph glyph-name="aacute.ss01" horiz-adv-x="535" 
d="M340 200q-16 9 -32.5 12t-32.5 3q-15 0 -32.5 -3t-32.5 -10t-25 -19t-10 -31q0 -24 19.5 -38t45.5 -14q27 0 53 12t47 38v50zM345 0v39q-13 -17 -46.5 -33t-78.5 -16q-37 0 -69 12.5t-55.5 34.5t-37 51.5t-13.5 63.5q0 40 16 71t43.5 52.5t63.5 33t76 11.5q24 0 49 -5
t47 -16q0 24 -8.5 40.5t-22 26.5t-31.5 14.5t-37 4.5q-35 0 -71 -13.5t-58 -26.5l-42 100q24 16 72 33t111 17q52 0 97 -19t76 -57q21 -26 32.5 -59t11.5 -90v-270h-125zM420 720l-120 -160h-90l70 160h140z" />
    <glyph glyph-name="acircumflex.ss01" horiz-adv-x="535" 
d="M340 200q-16 9 -32.5 12t-32.5 3q-15 0 -32.5 -3t-32.5 -10t-25 -19t-10 -31q0 -24 19.5 -38t45.5 -14q27 0 53 12t47 38v50zM345 0v39q-13 -17 -46.5 -33t-78.5 -16q-37 0 -69 12.5t-55.5 34.5t-37 51.5t-13.5 63.5q0 40 16 71t43.5 52.5t63.5 33t76 11.5q24 0 49 -5
t47 -16q0 24 -8.5 40.5t-22 26.5t-31.5 14.5t-37 4.5q-35 0 -71 -13.5t-58 -26.5l-42 100q24 16 72 33t111 17q52 0 97 -19t76 -57q21 -26 32.5 -59t11.5 -90v-270h-125zM335 720l100 -160h-90l-80 90l-80 -90h-90l100 160h140z" />
    <glyph glyph-name="atilde.ss01" horiz-adv-x="535" 
d="M340 200q-16 9 -32.5 12t-32.5 3q-15 0 -32.5 -3t-32.5 -10t-25 -19t-10 -31q0 -24 19.5 -38t45.5 -14q27 0 53 12t47 38v50zM345 0v39q-13 -17 -46.5 -33t-78.5 -16q-37 0 -69 12.5t-55.5 34.5t-37 51.5t-13.5 63.5q0 40 16 71t43.5 52.5t63.5 33t76 11.5q24 0 49 -5
t47 -16q0 24 -8.5 40.5t-22 26.5t-31.5 14.5t-37 4.5q-35 0 -71 -13.5t-58 -26.5l-42 100q24 16 72 33t111 17q52 0 97 -19t76 -57q21 -26 32.5 -59t11.5 -90v-270h-125zM457 704q0 -27 -7 -51.5t-21.5 -42.5t-35 -29t-47.5 -11q-23 0 -43 8t-38 17t-35 17t-33 8
q-18 0 -28 -14.5t-12 -35.5l-80 16q0 27 7 51.5t21.5 42.5t35 29t47.5 11q22 0 42.5 -8t38.5 -17t35 -17t33 -8q18 0 28 14.5t12 35.5z" />
    <glyph glyph-name="adieresis.ss01" horiz-adv-x="535" 
d="M340 200q-16 9 -32.5 12t-32.5 3q-15 0 -32.5 -3t-32.5 -10t-25 -19t-10 -31q0 -24 19.5 -38t45.5 -14q27 0 53 12t47 38v50zM345 0v39q-13 -17 -46.5 -33t-78.5 -16q-37 0 -69 12.5t-55.5 34.5t-37 51.5t-13.5 63.5q0 40 16 71t43.5 52.5t63.5 33t76 11.5q24 0 49 -5
t47 -16q0 24 -8.5 40.5t-22 26.5t-31.5 14.5t-37 4.5q-35 0 -71 -13.5t-58 -26.5l-42 100q24 16 72 33t111 17q52 0 97 -19t76 -57q21 -26 32.5 -59t11.5 -90v-270h-125zM87 642q0 33 23.5 55.5t56.5 22.5t56.5 -22.5t23.5 -55.5t-23.5 -55.5t-56.5 -22.5t-56.5 22.5
t-23.5 55.5zM297 642q0 33 23.5 55.5t56.5 22.5t56.5 -22.5t23.5 -55.5t-23.5 -55.5t-56.5 -22.5t-56.5 22.5t-23.5 55.5z" />
    <glyph glyph-name="aring.ss01" horiz-adv-x="535" 
d="M340 200q-16 9 -32.5 12t-32.5 3q-15 0 -32.5 -3t-32.5 -10t-25 -19t-10 -31q0 -24 19.5 -38t45.5 -14q27 0 53 12t47 38v50zM345 0v39q-13 -17 -46.5 -33t-78.5 -16q-37 0 -69 12.5t-55.5 34.5t-37 51.5t-13.5 63.5q0 40 16 71t43.5 52.5t63.5 33t76 11.5q24 0 49 -5
t47 -16q0 24 -8.5 40.5t-22 26.5t-31.5 14.5t-37 4.5q-35 0 -71 -13.5t-58 -26.5l-42 100q24 16 72 33t111 17q52 0 97 -19t76 -57q21 -26 32.5 -59t11.5 -90v-270h-125zM155 650q0 23 8.5 43t23.5 35t35 23.5t43 8.5t43 -8.5t35 -23.5t23.5 -35t8.5 -43t-8.5 -43t-23.5 -35
t-35 -23.5t-43 -8.5t-43 8.5t-35 23.5t-23.5 35t-8.5 43zM235 650q0 -13 8.5 -21.5t21.5 -8.5t21.5 8.5t8.5 21.5t-8.5 21.5t-21.5 8.5t-21.5 -8.5t-8.5 -21.5z" />
    <glyph glyph-name="ae.ss01" horiz-adv-x="835" 
d="M667 305q-2 16 -9.5 31.5t-20 27.5t-29.5 19t-37 7q-41 0 -70 -26t-34 -59h200zM340 200q-16 9 -32.5 12t-32.5 3q-15 0 -32.5 -3t-32.5 -10t-25 -19t-10 -31q0 -24 19.5 -38t45.5 -14q27 0 53 12t47 38v50zM70 445q24 16 72 33t111 17q48 0 88.5 -16.5t71.5 -50.5
q29 31 68.5 49t89.5 18t92 -20t72.5 -53.5t47.5 -78.5t17 -96q0 -21 -3 -37h-336q3 -26 14 -47t28.5 -36t40 -23.5t48.5 -8.5q42 0 73.5 18.5t48.5 37.5l74 -74q-35 -42 -88.5 -64.5t-110.5 -22.5q-80 0 -135 36v-26h-109v39q-13 -17 -46.5 -33t-78.5 -16q-37 0 -69 12.5
t-55.5 34.5t-37 51.5t-13.5 63.5q0 40 16 71t43.5 52.5t63.5 33t76 11.5q24 0 49 -5t47 -16q0 24 -8.5 40.5t-22 26.5t-31.5 14.5t-37 4.5q-35 0 -71 -13.5t-58 -26.5z" />
    <glyph glyph-name="f.ss02" horiz-adv-x="500" 
d="M430 590q-13 6 -30 10.5t-34 4.5q-19 0 -37.5 -6t-31.5 -20q-10 -11 -16 -26.5t-6 -42.5v-25h190v-110h-190v-375h-130v375h-125v110h125v10q0 60 15 100t44 67q29 28 70.5 43t91.5 15q28 0 58 -7.5t51 -18.5z" />
    <glyph glyph-name="j.ss02" horiz-adv-x="320" 
d="M-24 -121q8 -4 23.5 -9t34.5 -5q20 0 37.5 6.5t28.5 19.5q8 9 11.5 22.5t3.5 36.5v535h130v-510q0 -59 -11 -94.5t-32 -60.5q-27 -32 -68 -51t-89 -19q-32 0 -64.5 7t-55.5 20zM95 657q0 35 25 59t60 24t60 -24t25 -59t-25 -59t-60 -24t-60 24t-25 59z" />
    <glyph glyph-name="r.ss02" horiz-adv-x="450" 
d="M395 357q-14 8 -32.5 13t-39.5 5t-40 -7t-34.5 -17.5t-26.5 -22.5t-17 -23v-305h-130v485h125v-49q20 25 55 42t73 17q27 0 54 -5.5t53 -19.5z" />
    <glyph glyph-name="t.ss02" horiz-adv-x="525" 
d="M481 16q-23 -10 -50.5 -18t-71.5 -8q-48 0 -85.5 15.5t-65.5 41.5q-29 27 -41 67.5t-12 100.5v160h-135v110h135v135h130v-135h205v-110h-205v-175q0 -27 3.5 -42.5t13.5 -26.5q12 -14 29 -20t36 -6q17 0 35.5 4.5t32.5 10.5z" />
    <glyph glyph-name="uniFB00.ss02" horiz-adv-x="870" 
d="M515 495q0 60 15 100t44 67q29 28 70.5 43t91.5 15q28 0 58 -7.5t51 -18.5l-45 -104q-13 6 -30 10.5t-34 4.5q-19 0 -37.5 -6t-31.5 -20q-10 -11 -16 -26.5t-6 -42.5v-25h190v-110h-190v-375h-130v375h-240v-375h-130v375h-125v110h125v10q0 60 15 100t44 67
q29 28 70.5 43t91.5 15q23 0 48.5 -5t45.5 -14l-38 -107q-12 5 -27 8t-29 3q-19 0 -37.5 -6t-31.5 -20q-10 -11 -16 -26.5t-6 -42.5v-25h240v10z" />
    <glyph glyph-name="fi.ss02" horiz-adv-x="720" 
d="M422 594q-12 5 -27 8t-29 3q-19 0 -37.5 -6t-31.5 -20q-10 -11 -16 -26.5t-6 -42.5v-25h370v-485h-130v375h-240v-375h-130v375h-125v110h125v10q0 60 15 100t44 67q29 28 70.5 43t91.5 15q23 0 48.5 -5t45.5 -14zM495 657q0 35 25 59t60 24t60 -24t25 -59t-25 -59
t-60 -24t-60 24t-25 59z" />
    <glyph glyph-name="fl.ss02" horiz-adv-x="720" 
d="M645 0h-130v375h-240v-375h-130v375h-125v110h125v10q0 60 15 100t44 67q29 28 70.5 43t91.5 15q23 0 48.5 -5t45.5 -14l-38 -107q-12 5 -27 8t-29 3q-19 0 -37.5 -6t-31.5 -20q-10 -11 -16 -26.5t-6 -42.5v-25h240v225h130v-710z" />
    <glyph glyph-name="uniFB03.ss02" horiz-adv-x="1090" 
d="M515 495q0 60 15 100t44 67q29 28 70.5 43t91.5 15q23 0 48.5 -5t45.5 -14l-38 -107q-12 5 -27 8t-29 3q-19 0 -37.5 -6t-31.5 -20q-10 -11 -16 -26.5t-6 -42.5v-25h370v-485h-130v375h-240v-375h-130v375h-240v-375h-130v375h-125v110h125v10q0 60 15 100t44 67
q29 28 70.5 43t91.5 15q23 0 48.5 -5t45.5 -14l-38 -107q-12 5 -27 8t-29 3q-19 0 -37.5 -6t-31.5 -20q-10 -11 -16 -26.5t-6 -42.5v-25h240v10zM865 657q0 35 25 59t60 24t60 -24t25 -59t-25 -59t-60 -24t-60 24t-25 59z" />
    <glyph glyph-name="uniFB04.ss02" horiz-adv-x="1090" 
d="M885 485v225h130v-710h-130v375h-240v-375h-130v375h-240v-375h-130v375h-125v110h125v10q0 60 15 100t44 67q29 28 70.5 43t91.5 15q23 0 48.5 -5t45.5 -14l-38 -107q-12 5 -27 8t-29 3q-19 0 -37.5 -6t-31.5 -20q-10 -11 -16 -26.5t-6 -42.5v-25h240v10q0 60 15 100
t44 67q29 28 70.5 43t91.5 15q23 0 48.5 -5t45.5 -14l-38 -107q-12 5 -27 8t-29 3q-19 0 -37.5 -6t-31.5 -20q-10 -11 -16 -26.5t-6 -42.5v-25h240z" />
    <glyph glyph-name="parenleft.ss03" horiz-adv-x="455" 
d="M260 350q0 -82 18 -161t53 -149l-108 -50q-41 81 -62 172t-21 188t21 188t62 172l108 -50q-35 -70 -53 -149t-18 -161z" />
    <glyph glyph-name="parenright.ss03" horiz-adv-x="455" 
d="M195 350q0 82 -18 161t-53 149l108 50q41 -81 62 -172t21 -188t-21 -188t-62 -172l-108 50q35 70 53 149t18 161z" />
    <glyph glyph-name="bracketleft.ss03" horiz-adv-x="455" 
d="M140 700h275v-115h-155v-470h155v-115h-275v700z" />
    <glyph glyph-name="bracketright.ss03" horiz-adv-x="455" 
d="M315 0h-275v115h155v470h-155v115h275v-700z" />
    <glyph glyph-name="braceleft.ss03" horiz-adv-x="455" 
d="M187 350q13 -5 26 -11t23.5 -17.5t17 -29.5t6.5 -46q0 -17 -2.5 -33.5t-2.5 -35.5q0 -36 22.5 -49t53.5 -13h34v-115h-25q-39 0 -71 6t-58 20q-35 20 -55.5 55t-20.5 83q0 19 2.5 40.5t2.5 37.5q0 38 -24 53t-66 15v80q42 0 66 15t24 53q0 16 -2.5 37.5t-2.5 40.5
q0 48 20.5 83t55.5 55q26 14 58 20t71 6h25v-115h-34q-31 0 -53.5 -13t-22.5 -49q0 -19 2.5 -35.5t2.5 -33.5q0 -28 -6.5 -46t-17 -29.5t-23.5 -18t-26 -10.5z" />
    <glyph glyph-name="bar.ss03" horiz-adv-x="240" 
d="M180 0h-120v700h120v-700z" />
    <glyph glyph-name="braceright.ss03" horiz-adv-x="455" 
d="M268 350q-13 4 -26 10.5t-23.5 18t-17 29.5t-6.5 46q0 17 2.5 33.5t2.5 35.5q0 36 -22.5 49t-53.5 13h-34v115h25q39 0 71 -6t58 -20q35 -20 55.5 -55t20.5 -83q0 -19 -2.5 -40.5t-2.5 -37.5q0 -38 24 -53t66 -15v-80q-42 0 -66 -15t-24 -53q0 -16 2.5 -37.5t2.5 -40.5
q0 -48 -20.5 -83t-55.5 -55q-26 -14 -58 -20t-71 -6h-25v115h34q31 0 53.5 13t22.5 49q0 19 -2.5 35.5t-2.5 33.5q0 28 6.5 46t17 29.5t23.5 17.5t26 11z" />
    <glyph glyph-name="endash.ss04" horiz-adv-x="1120" 
d="M1105 315v-110h-1090v110h1090z" />
    <glyph glyph-name="emdash.ss04" horiz-adv-x="1420" 
d="M1405 315v-110h-1390v110h1390z" />
    <glyph glyph-name="endash.case.ss04" horiz-adv-x="1120" 
d="M1105 430v-110h-1090v110h1090z" />
    <glyph glyph-name="emdash.case.ss04" horiz-adv-x="1420" 
d="M1405 430v-110h-1390v110h1390z" />
    <glyph glyph-name="asterisk.ss05" horiz-adv-x="516" 
d="M368 480l108 -62l-55 -96l-108 63v-125h-110v125l-108 -63l-55 96l107 62l-107 62l55 96l108 -62v124h110v-124l108 62l55 -96z" />
    <glyph glyph-name="asterisk.ss06" horiz-adv-x="516" 
d="M173 690l85 -117l85 117l88 -64l-85 -117l138 -45l-34 -104l-137 45v-145h-110v145l-137 -44l-34 103l138 45l-85 117z" />
    <glyph glyph-name="asterisk.ss07" horiz-adv-x="516" 
d="M258 370l-62 -108l-96 55l63 108h-125v110h125l-63 108l96 55l62 -107l62 107l96 -55l-62 -108h124v-110h-124l62 -108l-96 -55z" />
    <glyph glyph-name="asterisk.ss08" horiz-adv-x="516" 
d="M258 369l96 55l62 -107l-96 -55zM354 536l-96 55l62 107l96 -55zM38 535h124v-110h-124v110zM100 317l62 107l95 -55l-61 -107zM196 698l61 -107l-95 -55l-62 107zM355 425v110h123v-110h-123z" />
    <glyph glyph-name="asterisk.ss09" horiz-adv-x="516" 
d="M203 260v164h110v-164h-110zM38 535h164v-110h-164v110zM314 425v110h164v-110h-164zM313 536h-110v164h110v-164zM49 612l77 77l67 -66l-78 -78zM390 689l77 -77l-66 -67l-78 78zM115 415l78 -78l-67 -66l-77 77zM323 337l78 78l66 -67l-77 -77z" />
    <glyph glyph-name="f_f_i.ss02" horiz-adv-x="1090" 
d="M515 495q0 60 15 100t44 67q29 28 70.5 43t91.5 15q23 0 48.5 -5t45.5 -14l-38 -107q-12 5 -27 8t-29 3q-19 0 -37.5 -6t-31.5 -20q-10 -11 -16 -26.5t-6 -42.5v-25h370v-485h-130v375h-240v-375h-130v375h-240v-375h-130v375h-125v110h125v10q0 60 15 100t44 67
q29 28 70.5 43t91.5 15q23 0 48.5 -5t45.5 -14l-38 -107q-12 5 -27 8t-29 3q-19 0 -37.5 -6t-31.5 -20q-10 -11 -16 -26.5t-6 -42.5v-25h240v10zM865 657q0 35 25 59t60 24t60 -24t25 -59t-25 -59t-60 -24t-60 24t-25 59z" />
    <glyph glyph-name="f_f.ss02" horiz-adv-x="870" 
d="M515 495q0 60 15 100t44 67q29 28 70.5 43t91.5 15q28 0 58 -7.5t51 -18.5l-45 -104q-13 6 -30 10.5t-34 4.5q-19 0 -37.5 -6t-31.5 -20q-10 -11 -16 -26.5t-6 -42.5v-25h190v-110h-190v-375h-130v375h-240v-375h-130v375h-125v110h125v10q0 60 15 100t44 67
q29 28 70.5 43t91.5 15q23 0 48.5 -5t45.5 -14l-38 -107q-12 5 -27 8t-29 3q-19 0 -37.5 -6t-31.5 -20q-10 -11 -16 -26.5t-6 -42.5v-25h240v10z" />
    <glyph glyph-name="f_l.ss02" horiz-adv-x="720" 
d="M645 0h-130v375h-240v-375h-130v375h-125v110h125v10q0 60 15 100t44 67q29 28 70.5 43t91.5 15q23 0 48.5 -5t45.5 -14l-38 -107q-12 5 -27 8t-29 3q-19 0 -37.5 -6t-31.5 -20q-10 -11 -16 -26.5t-6 -42.5v-25h240v225h130v-710z" />
    <glyph glyph-name="f_i.ss02" horiz-adv-x="720" 
d="M422 594q-12 5 -27 8t-29 3q-19 0 -37.5 -6t-31.5 -20q-10 -11 -16 -26.5t-6 -42.5v-25h370v-485h-130v375h-240v-375h-130v375h-125v110h125v10q0 60 15 100t44 67q29 28 70.5 43t91.5 15q23 0 48.5 -5t45.5 -14zM495 657q0 35 25 59t60 24t60 -24t25 -59t-25 -59
t-60 -24t-60 24t-25 59z" />
    <glyph glyph-name="f_f_l.ss02" horiz-adv-x="1090" 
d="M885 485v225h130v-710h-130v375h-240v-375h-130v375h-240v-375h-130v375h-125v110h125v10q0 60 15 100t44 67q29 28 70.5 43t91.5 15q23 0 48.5 -5t45.5 -14l-38 -107q-12 5 -27 8t-29 3q-19 0 -37.5 -6t-31.5 -20q-10 -11 -16 -26.5t-6 -42.5v-25h240v10q0 60 15 100
t44 67q29 28 70.5 43t91.5 15q23 0 48.5 -5t45.5 -14l-38 -107q-12 5 -27 8t-29 3q-19 0 -37.5 -6t-31.5 -20q-10 -11 -16 -26.5t-6 -42.5v-25h240z" />
    <glyph glyph-name="uni00AD.case" horiz-adv-x="470" 
d="M400 405v-110h-330v110h330z" />
    <glyph glyph-name="space.frac" horiz-adv-x="54" 
 />
    <glyph glyph-name="uni2007.tf" 
 />
    <glyph glyph-name="uni2007" unicode="&#x2007;" horiz-adv-x="600" 
 />
    <glyph glyph-name="uni2008" unicode="&#x2008;" horiz-adv-x="375" 
 />
    <glyph glyph-name="uni200B" unicode="&#x200b;" horiz-adv-x="0" 
 />
    </font>
</defs>
</svg>
