<?xml version="1.0" standalone="no"?>
<!DOCTYPE svg PUBLIC "-//W3C//DTD SVG 1.1//EN" "http://www.w3.org/Graphics/SVG/1.1/DTD/svg11.dtd" >
<svg>
<metadata>
Created by FontForge 20120731 at Tue Apr 29 20:01:53 2014

Copyright (c) 2011 by Aurele Sack. www.lineto.com. All rights reserved.
</metadata>
<defs>
<font id="lineto-brown-italic" horiz-adv-x="590" >
  <font-face 
    font-family="Brown Itali"
    font-weight="400"
    font-style="italic"
    font-stretch="normal"
    units-per-em="1000"
    panose-1="2 0 0 0 0 0 0 0 0 0"
    ascent="750"
    descent="-250"
    x-height="460"
    cap-height="700"
    bbox="-148 -250 1394 930"
    underline-thickness="80"
    underline-position="-20"
    slope="-10"
    unicode-range="U+0020-FB04"
  />
<missing-glyph horiz-adv-x="539" 
d="M75 700h389v-700h-389v700zM170 90h199v520h-199v-520z" />
    <glyph glyph-name="f_f_l" unicode="ffl" horiz-adv-x="1024" 
d="M792 623q-11 3 -21.5 5t-23.5 2q-50 0 -76 -29t-35 -78l-11 -63h264l44 250h96l-125 -710h-96l66 375h-264l-66 -375h-96l66 375h-268l-66 -375h-96l66 375h-120l15 85h120l14 80q14 82 64.5 131t132.5 49q18 0 37 -2t42 -10l-27 -85q-11 3 -21.5 5t-23.5 2
q-50 0 -76 -29t-35 -78l-11 -63h268l14 80q14 82 64.5 131t132.5 49q18 0 37 -2t42 -10z" />
    <glyph glyph-name="f_f" unicode="ff" horiz-adv-x="809" 
d="M792 623q-11 3 -21.5 5t-23.5 2q-50 0 -76 -29t-35 -78l-11 -63h160l-15 -85h-160l-66 -375h-96l66 375h-268l-66 -375h-96l66 375h-120l15 85h120l14 80q14 82 64.5 131t132.5 49q18 0 37 -2t42 -10l-27 -85q-11 3 -21.5 5t-23.5 2q-50 0 -76 -29t-35 -78l-11 -63h268
l14 80q14 82 64.5 131t132.5 49q18 0 37 -2t42 -10z" />
    <glyph glyph-name="f_f_i" unicode="ffi" horiz-adv-x="1024" 
d="M792 623q-11 3 -21.5 5t-23.5 2q-50 0 -76 -29t-35 -78l-11 -63h360l-81 -460h-96l66 375h-264l-66 -375h-96l66 375h-268l-66 -375h-96l66 375h-120l15 85h120l14 80q14 82 64.5 131t132.5 49q18 0 37 -2t42 -10l-27 -85q-11 3 -21.5 5t-23.5 2q-50 0 -76 -29t-35 -78
l-11 -63h268l14 80q14 82 64.5 131t132.5 49q18 0 37 -2t42 -10zM902 627q0 26 18 44.5t44 18.5t44.5 -18.5t18.5 -44.5t-18.5 -44t-44.5 -18t-44 18t-18 44z" />
    <glyph glyph-name="f_i" unicode="fi" horiz-adv-x="660" 
d="M428 623q-11 3 -21.5 5t-23.5 2q-50 0 -76 -29t-35 -78l-11 -63h360l-81 -460h-96l66 375h-264l-66 -375h-96l66 375h-120l15 85h120l14 80q14 82 64.5 131t132.5 49q18 0 37 -2t42 -10zM538 627q0 26 18 44.5t44 18.5t44.5 -18.5t18.5 -44.5t-18.5 -44t-44.5 -18t-44 18
t-18 44z" />
    <glyph glyph-name="f_l" unicode="fl" horiz-adv-x="660" 
d="M428 623q-11 3 -21.5 5t-23.5 2q-50 0 -76 -29t-35 -78l-11 -63h264l44 250h96l-125 -710h-96l66 375h-264l-66 -375h-96l66 375h-120l15 85h120l14 80q14 82 64.5 131t132.5 49q18 0 37 -2t42 -10z" />
    <glyph glyph-name=".notdef" horiz-adv-x="539" 
d="M75 700h389v-700h-389v700zM170 90h199v520h-199v-520z" />
    <glyph glyph-name=".null" horiz-adv-x="0" 
 />
    <glyph glyph-name="uni000D" horiz-adv-x="275" 
 />
    <glyph glyph-name="space" unicode=" " horiz-adv-x="275" 
 />
    <glyph glyph-name="exclam" unicode="!" horiz-adv-x="345" 
d="M166 460l42 240h96l-42 -240l-58 -240h-66zM72 60q0 29 20.5 49.5t49.5 20.5t49.5 -20.5t20.5 -49.5t-20.5 -49.5t-49.5 -20.5t-49.5 20.5t-20.5 49.5z" />
    <glyph glyph-name="quotedbl" unicode="&#x22;" horiz-adv-x="462" 
d="M161 700h96l-56 -245h-66zM361 700h96l-56 -245h-66z" />
    <glyph glyph-name="numbersign" unicode="#" horiz-adv-x="630" 
d="M460 195l-53 -195h-93l53 195h-137l-53 -195h-93l53 195h-102l16 90h110l34 130h-103l16 90h111l53 195h93l-53 -195h137l53 195h93l-53 -195h103l-16 -90h-111l-34 -130h103l-16 -90h-111zM254 285h137l34 130h-137z" />
    <glyph glyph-name="dollar" unicode="$" horiz-adv-x="520" 
d="M76 170q32 -38 75.5 -61.5t95.5 -23.5q25 0 48.5 8t41.5 22.5t29 35.5t11 47q0 37 -20 62t-49.5 44t-64.5 36.5t-64.5 40.5t-49.5 54.5t-20 79.5q0 39 15.5 72t42.5 58t62 41t74 21l19 108h95l-20 -111q38 -7 73.5 -25t64.5 -47l-63 -73q-26 26 -61 41t-73 15
q-20 0 -43 -5t-42 -16.5t-31.5 -29.5t-12.5 -43q0 -29 20 -49t49.5 -38t64.5 -37t64.5 -45t49.5 -63t20 -91q0 -42 -16 -77.5t-44 -63t-65.5 -44.5t-79.5 -21l-19 -107h-95l20 112q-51 11 -96 37.5t-77 69.5z" />
    <glyph glyph-name="percent" unicode="%" horiz-adv-x="945" 
d="M167 517q0 -40 24 -66t63 -26q21 0 39.5 8t32.5 22.5t22 34t8 43.5q0 40 -24 66t-63 26q-21 0 -39.5 -8t-32.5 -22.5t-22 -34t-8 -43.5zM253 340q-37 0 -69 13.5t-56 36.5t-37.5 54.5t-13.5 67.5q0 43 14.5 79.5t40.5 62.5t61.5 41t76.5 15q37 0 69 -13.5t56 -36.5
t37.5 -54.5t13.5 -67.5q0 -43 -14.5 -79.5t-40.5 -62.5t-61.5 -41t-76.5 -15zM619 167q0 -40 24 -66t63 -26q21 0 39.5 8t32.5 22.5t22 34t8 43.5q0 40 -24 66t-63 26q-21 0 -39.5 -8t-32.5 -22.5t-22 -34t-8 -43.5zM705 -10q-37 0 -69 13.5t-56 36.5t-37.5 54.5t-13.5 67.5
q0 43 14.5 79.5t40.5 62.5t61.5 41t76.5 15q37 0 69 -13.5t56 -36.5t37.5 -54.5t13.5 -67.5q0 -43 -14.5 -79.5t-40.5 -62.5t-61.5 -41t-76.5 -15zM175 0l532 700h93l-532 -700h-93z" />
    <glyph glyph-name="ampersand" unicode="&#x26;" horiz-adv-x="681" 
d="M520 350q0 17 -2 36.5t-4 30.5l90 25q3 -12 7 -36.5t4 -60.5q0 -57 -15.5 -110t-44.5 -98l114 -137h-117l-56 68q-42 -36 -94 -57t-115 -21q-55 0 -99 17t-75.5 46.5t-48.5 68t-17 80.5q0 41 13.5 74.5t36 60t51.5 47t60 36.5q-24 33 -39 65.5t-15 67.5q0 34 13 63
t35.5 50t53 32.5t64.5 11.5q31 0 59.5 -11t50 -31t34 -47.5t12.5 -60.5q0 -31 -10.5 -56t-28.5 -46t-40.5 -38.5t-46.5 -32.5l141 -172q29 63 29 135zM142 202q0 -55 40.5 -88.5t106.5 -33.5q47 0 84 15.5t65 42.5l-174 211q-52 -24 -87 -59.5t-35 -87.5zM381 560
q0 25 -17.5 42.5t-43.5 17.5q-32 0 -51.5 -20t-19.5 -47q0 -25 14 -51t30 -47q18 12 34 23t28 23.5t19 27t7 31.5z" />
    <glyph glyph-name="quotesingle" unicode="'" horiz-adv-x="262" 
d="M161 700h96l-56 -245h-66z" />
    <glyph glyph-name="parenleft" unicode="(" horiz-adv-x="450" 
d="M461 650q-47 -52 -85 -110.5t-65 -122.5t-42 -132t-15 -138q0 -81 18.5 -159t53.5 -150l-80 -48q-42 78 -64.5 168.5t-22.5 188.5q0 82 16.5 158t47 146.5t73 135t93.5 123.5z" />
    <glyph glyph-name="parenright" unicode=")" horiz-adv-x="450" 
d="M-6 -150q46 52 84.5 110.5t65.5 122t42 131.5t15 139q0 81 -18.5 159t-53.5 150l80 48q42 -78 64.5 -168.5t22.5 -188.5q0 -82 -16.5 -158t-47 -146.5t-73 -135t-93.5 -123.5z" />
    <glyph glyph-name="asterisk" unicode="*" horiz-adv-x="500" 
d="M342 549l142 46l24 -76l-163 -53l72 -124l-69 -39l-68 116l-105 -116l-59 54l105 115l-136 48l26 75l149 -51l27 156h81z" />
    <glyph glyph-name="plus" unicode="+" horiz-adv-x="550" 
d="M311 210l-29 -170h-90l29 170h-170l16 90h170l30 170h90l-30 -170h170l-16 -90h-170z" />
    <glyph glyph-name="comma" unicode="," horiz-adv-x="340" 
d="M214 115l-160 -255h-69l115 255h114z" />
    <glyph glyph-name="hyphen" unicode="-" horiz-adv-x="453" 
d="M382 295l-14 -80h-290l14 80h290z" />
    <glyph glyph-name="period" unicode="." horiz-adv-x="340" 
d="M75 60q0 29 20.5 49.5t49.5 20.5t49.5 -20.5t20.5 -49.5t-20.5 -49.5t-49.5 -20.5t-49.5 20.5t-20.5 49.5z" />
    <glyph glyph-name="slash" unicode="/" horiz-adv-x="565" 
d="M5 0l449 700h106l-449 -700h-106z" />
    <glyph glyph-name="zero" unicode="0" horiz-adv-x="602" 
d="M362 615q-35 0 -62.5 -17.5t-49.5 -46.5t-37.5 -67.5t-25.5 -79.5t-15 -83t-5 -78q0 -34 5 -63t17.5 -50t33 -33t52.5 -12q34 0 62 17.5t50 46.5t37.5 67.5t25.5 79.5t15 83t5 78q0 34 -5 63t-17.5 50t-33.5 33t-52 12zM275 -10q-53 0 -92 18.5t-65 52t-38.5 80
t-12.5 102.5q0 52 7.5 107t22.5 107t39 98t56.5 80.5t75 54.5t94.5 20t91 -18.5t65 -52t39 -80t13 -102.5q0 -52 -7.5 -107t-22.5 -107t-39 -98t-56.5 -80.5t-75 -54.5t-94.5 -20z" />
    <glyph glyph-name="one" unicode="1" horiz-adv-x="383" 
d="M104 606l183 94h69l-123 -700h-99l102 579l-149 -74z" />
    <glyph glyph-name="two" unicode="2" horiz-adv-x="526" 
d="M91 553q13 40 35.5 69.5t51 49t61 29t66.5 9.5q45 0 82.5 -15.5t64.5 -42.5t42 -63t15 -77q0 -32 -11 -62t-28.5 -57.5t-40 -52.5t-46.5 -48l-203 -197h257l-17 -95h-420l11 65l282 274l46.5 46.5t37 42t24 41t8.5 43.5q0 45 -30 74t-74 29q-48 0 -78 -27t-45 -66z" />
    <glyph glyph-name="three" unicode="3" horiz-adv-x="555" 
d="M341 455q67 -23 107 -81t40 -133q0 -51 -19.5 -97t-54 -80t-80.5 -54t-99 -20q-71 0 -128.5 31.5t-86.5 84.5l80 54q20 -32 54 -53.5t81 -21.5q33 0 61 13t48.5 34.5t32 49.5t11.5 59q0 30 -10.5 54.5t-28.5 42t-43.5 27.5t-55.5 10q-24 0 -43.5 -3.5t-29.5 -7.5l11 65
l175 176h-237l17 95h390l-12 -65z" />
    <glyph glyph-name="four" unicode="4" horiz-adv-x="612" 
d="M21 235l472 465h69l-76 -435h111l-16 -95h-112l-30 -170h-99l31 170h-361zM387 265l41 235l-236 -235h195z" />
    <glyph glyph-name="five" unicode="5" horiz-adv-x="529" 
d="M91 355l110 345h338l-17 -95h-252l-45 -141q24 6 48 6q44 0 83 -18t68.5 -49t46.5 -73t17 -90q0 -51 -20 -96.5t-54.5 -79.5t-81.5 -54t-102 -20q-73 0 -125.5 29.5t-84.5 70.5l76 59q18 -23 51 -43.5t83 -20.5q33 0 61.5 12t50 33t34 49.5t12.5 60.5q0 30 -9.5 55
t-27 42.5t-42 27.5t-53.5 10t-54.5 -11t-45.5 -29z" />
    <glyph glyph-name="six" unicode="6" 
d="M313 470q48 0 90.5 -18t74 -49t49.5 -72.5t18 -89.5q0 -53 -20 -99t-54.5 -80t-80 -53t-97.5 -19q-51 0 -95 17.5t-75.5 48t-49.5 72.5t-18 91q0 45 15 84.5t41 71.5l259 325h126zM208 341q-5 -6 -14 -17.5t-17.5 -27t-15 -35.5t-6.5 -42q0 -30 10.5 -54.5t29 -42
t43.5 -27.5t55 -10q32 0 59.5 12.5t48 33.5t32.5 49t12 59q0 30 -10.5 55t-29 43t-44 28t-55.5 10q-20 0 -41.5 -4t-39.5 -11z" />
    <glyph glyph-name="seven" unicode="7" horiz-adv-x="520" 
d="M18 0l398 605h-313l17 95h440l-12 -65l-416 -635h-114z" />
    <glyph glyph-name="eight" unicode="8" horiz-adv-x="584" 
d="M147 513q0 42 16 78t43 62.5t64 41.5t79 15q40 0 74 -13.5t59 -37t39 -55t14 -67.5q0 -52 -23.5 -92.5t-62.5 -66.5q34 -28 53 -66.5t19 -83.5q0 -50 -19 -93.5t-51.5 -75.5t-76.5 -50.5t-95 -18.5q-48 0 -88.5 16.5t-70.5 45t-46.5 66t-16.5 79.5q0 71 35.5 125.5
t95.5 82.5q-20 22 -30.5 49t-10.5 59zM421 223q0 51 -33.5 84t-88.5 33q-29 0 -55 -11t-45.5 -30t-30.5 -44t-11 -53q0 -51 33.5 -84t88.5 -33q29 0 55 11t45.5 30t30.5 44t11 53zM435 532q0 36 -24 59.5t-62 23.5q-21 0 -39.5 -7.5t-32.5 -21t-22 -31t-8 -37.5
q0 -36 24 -59.5t62 -23.5q21 0 39.5 7.5t32.5 21t22 31t8 37.5z" />
    <glyph glyph-name="nine" unicode="9" horiz-adv-x="582" 
d="M297 230q-48 0 -90.5 18t-74 49t-49.5 72.5t-18 89.5q0 53 20 99t54.5 79.5t80 53t97.5 19.5q51 0 95 -17.5t75.5 -48.5t49.5 -72.5t18 -90.5q0 -45 -15 -84.5t-41 -71.5l-259 -325h-126zM402 359q5 6 14 17.5t17.5 27t15 35t6.5 42.5q0 30 -10.5 54.5t-29 42t-43.5 27.5
t-55 10q-32 0 -59.5 -12.5t-48 -33.5t-32.5 -49t-12 -59q0 -30 10.5 -55t29 -43t44 -28t55.5 -10q20 0 41.5 4t39.5 11z" />
    <glyph glyph-name="colon" unicode=":" horiz-adv-x="340" 
d="M75 60q0 29 20.5 49.5t49.5 20.5t49.5 -20.5t20.5 -49.5t-20.5 -49.5t-49.5 -20.5t-49.5 20.5t-20.5 49.5zM137 400q0 29 20.5 49.5t49.5 20.5t49.5 -20.5t20.5 -49.5t-20.5 -49.5t-49.5 -20.5t-49.5 20.5t-20.5 49.5z" />
    <glyph glyph-name="semicolon" unicode=";" horiz-adv-x="340" 
d="M137 400q0 29 20.5 49.5t49.5 20.5t49.5 -20.5t20.5 -49.5t-21 -49.5t-50 -20.5t-49 20.5t-20 49.5zM214 115l-160 -255h-69l115 255h114z" />
    <glyph glyph-name="less" unicode="&#x3c;" horiz-adv-x="540" 
d="M44 285l473 188l-18 -105l-301 -120l258 -119l-16 -92l-407 188z" />
    <glyph glyph-name="equal" unicode="=" horiz-adv-x="550" 
d="M35 120l16 90h430l-16 -90h-430zM67 300l16 90h430l-16 -90h-430z" />
    <glyph glyph-name="greater" unicode="&#x3e;" horiz-adv-x="540" 
d="M494 225l-473 -188l18 105l301 120l-258 119l16 92l407 -188z" />
    <glyph glyph-name="question" unicode="?" horiz-adv-x="504" 
d="M112 584q12 28 32.5 51.5t47 40t56.5 25.5t60 9q43 0 78.5 -14t61 -37.5t39 -55t13.5 -65.5q0 -42 -16.5 -73.5t-41.5 -56t-53.5 -43t-53.5 -35t-41.5 -32.5t-16.5 -34q0 -17 16 -35l-69 -60q-42 46 -42 100q0 33 16.5 58.5t41.5 46.5t53.5 39t53.5 37t41.5 39.5
t16.5 47.5q0 36 -28.5 59.5t-68.5 23.5q-18 0 -35.5 -6.5t-32.5 -17t-26.5 -24t-17.5 -28.5zM146 60q0 29 20.5 49.5t49.5 20.5t49.5 -20.5t20.5 -49.5t-20.5 -49.5t-49.5 -20.5t-49.5 20.5t-20.5 49.5z" />
    <glyph glyph-name="at" unicode="@" horiz-adv-x="1004" 
d="M626 90q-9 -8 -22.5 -18t-32.5 -18t-43 -13.5t-54 -5.5q-36 0 -72 13t-62 36q-32 29 -50.5 69t-18.5 88t19 89t51.5 71t74.5 47t89 17q49 0 82 -15.5t50 -30.5l7 36h89l-38 -215q-1 -3 -2 -10.5t-2 -16t-2 -16.5t-1 -12q0 -36 19 -50.5t42 -14.5q25 0 44 13t31.5 36
t18.5 54.5t6 69.5q0 68 -25.5 125t-70 98.5t-106 65t-133.5 23.5t-135 -28t-110.5 -76t-74.5 -113t-27 -138q0 -74 27 -138.5t74.5 -112.5t110.5 -76t135 -28q58 0 109.5 18.5t95.5 50.5l48 -70q-52 -40 -116.5 -62t-136.5 -22q-91 0 -170.5 34.5t-139 94.5t-93.5 140
t-34 171t34 171t93.5 140t139 94.5t170.5 34.5q88 0 165 -29.5t134.5 -82t90.5 -125.5t33 -160q0 -50 -12 -96.5t-35.5 -82.5t-59 -57.5t-83.5 -21.5q-31 0 -64.5 13.5t-56.5 41.5zM621 329q-18 23 -49 37t-62 14q-28 0 -54.5 -9.5t-47.5 -27.5t-33.5 -44t-12.5 -59
q0 -53 34 -86.5t87 -33.5q37 0 66.5 15.5t47.5 35.5q0 11 1.5 27t4.5 31z" />
    <glyph glyph-name="A" unicode="A" horiz-adv-x="643" 
d="M-40 0l413 700h69l167 -700h-99l-43 180h-290l-105 -180h-112zM233 275h212l-61 257z" />
    <glyph glyph-name="B" unicode="B" horiz-adv-x="626" 
d="M564 528q0 -42 -15 -78t-42 -63q36 -27 57.5 -68.5t21.5 -91.5q0 -38 -11 -70t-30.5 -58.5t-46 -46t-57.5 -32.5q-26 -11 -57.5 -15.5t-76.5 -4.5h-260l123 700h203q43 0 71 -8t49 -23q32 -24 51.5 -60t19.5 -81zM204 330l-41 -235h147q41 0 67 5.5t46 16.5
q28 16 45.5 42.5t17.5 61.5q0 38 -19 67q-13 18 -35 30t-61 12h-167zM252 605l-31 -180h130q29 0 45.5 5t27.5 14q18 14 29 34.5t11 43.5q0 20 -7.5 37t-20.5 28q-11 9 -26 13.5t-44 4.5h-114z" />
    <glyph glyph-name="C" unicode="C" horiz-adv-x="717" 
d="M444 710q93 0 163.5 -34.5t122.5 -88.5l-69 -67q-38 39 -90 67t-127 28q-62 0 -113 -23.5t-87.5 -63t-56.5 -91t-20 -106.5t19 -100.5t53 -77.5t80.5 -50t100.5 -18q62 0 112 24t91 67l68 -67q-54 -59 -124 -89t-148 -30q-75 0 -139 25t-111.5 70t-74.5 107.5t-27 137.5
q0 76 28 144.5t78 121t119 83.5t152 31z" />
    <glyph glyph-name="D" unicode="D" horiz-adv-x="731" 
d="M253 605l-90 -510h144q71 0 124 22t92 60q38 38 59.5 88.5t21.5 103.5q0 48 -16.5 92.5t-48.5 77.5t-77.5 49.5t-107.5 16.5h-101zM354 700q85 0 148.5 -24t109.5 -70q45 -46 68.5 -107t23.5 -129q0 -74 -29.5 -141t-80.5 -119q-52 -54 -125.5 -82t-162.5 -28h-259
l123 700h184z" />
    <glyph glyph-name="E" unicode="E" horiz-adv-x="535" 
d="M452 425l-17 -95h-231l-42 -235h312l-17 -95h-410l123 700h400l-17 -95h-301l-32 -180h232z" />
    <glyph glyph-name="F" unicode="F" horiz-adv-x="512" 
d="M452 425l-17 -95h-231l-58 -330h-99l123 700h400l-17 -95h-301l-32 -180h232z" />
    <glyph glyph-name="G" unicode="G" horiz-adv-x="771" 
d="M691 109q-54 -59 -124 -89t-148 -30q-75 0 -139 25t-111.5 70t-74.5 107.5t-27 137.5q0 76 28 144.5t78 121t119 83.5t152 31q93 0 163.5 -34.5t122.5 -88.5l-69 -67q-38 39 -90 67t-127 28q-62 0 -113 -23.5t-87.5 -63t-56.5 -91t-20 -106.5t19 -100.5t53 -77.5
t80.5 -50t100.5 -18q103 0 179 64l31 181h-200l16 95h300z" />
    <glyph glyph-name="H" unicode="H" horiz-adv-x="762" 
d="M47 0l123 700h99l-49 -275h387l49 275h99l-123 -700h-99l58 330h-387l-58 -330h-99z" />
    <glyph glyph-name="I" unicode="I" horiz-adv-x="276" 
d="M47 0l123 700h99l-123 -700h-99z" />
    <glyph glyph-name="J" unicode="J" horiz-adv-x="468" 
d="M69 140q14 -24 38.5 -39.5t54.5 -15.5q26 0 46.5 9t34.5 25t23 40.5t16 63.5l85 477h99l-86 -490q-8 -48 -19.5 -80.5t-28.5 -56.5q-28 -40 -72 -61.5t-98 -21.5q-52 0 -102 26t-78 79z" />
    <glyph glyph-name="K" unicode="K" horiz-adv-x="632" 
d="M587 0h-118l-261 352l-62 -352h-99l123 700h99l-52 -296l332 296h141l-375 -335z" />
    <glyph glyph-name="L" unicode="L" horiz-adv-x="516" 
d="M47 0l123 700h99l-107 -605h312l-17 -95h-410z" />
    <glyph glyph-name="M" unicode="M" horiz-adv-x="847" 
d="M47 0l123 700h69l184 -425l348 425h69l-123 -700h-99l81 462l-257 -312h-69l-144 328l-83 -478h-99z" />
    <glyph glyph-name="N" unicode="N" horiz-adv-x="768" 
d="M47 0l123 700h69l331 -525l92 525h99l-123 -700h-69l-331 524l-92 -524h-99z" />
    <glyph glyph-name="O" unicode="O" horiz-adv-x="810" 
d="M444 615q-54 0 -103 -22.5t-90 -62.5q-40 -40 -62 -92.5t-22 -106.5q0 -51 16.5 -96.5t50.5 -80.5t78.5 -52t93.5 -17q54 0 103 22.5t90 62.5q40 40 62 92.5t22 106.5q0 51 -16.5 96.5t-50.5 80.5t-78.5 52t-93.5 17zM405 -10q-71 0 -133 24.5t-110 72.5
q-47 48 -71 110.5t-24 132.5q0 75 30 144t83 123q54 55 123.5 84t141.5 29q71 0 133 -24.5t110 -72.5q47 -48 71 -110.5t24 -132.5q0 -75 -30 -144t-83 -123q-54 -55 -123.5 -84t-141.5 -29z" />
    <glyph glyph-name="P" unicode="P" horiz-adv-x="609" 
d="M389 405q32 0 50 5.5t31 15.5q20 15 32 38t12 49q0 23 -8.5 41.5t-22.5 30.5q-11 10 -28 15t-49 5h-154l-35 -200h172zM412 700q45 0 74.5 -8.5t51.5 -24.5q35 -25 55.5 -63t20.5 -85q0 -62 -30.5 -111.5t-81.5 -75.5q-21 -11 -47 -16.5t-67 -5.5h-188l-54 -310h-99
l123 700h242z" />
    <glyph glyph-name="Q" unicode="Q" horiz-adv-x="810" 
d="M405 -10q-71 0 -133 24.5t-110 72.5q-47 48 -71 110.5t-24 132.5q0 75 30 144t83 123q54 55 123.5 84t141.5 29q71 0 133 -24.5t110 -72.5q47 -48 71 -110.5t24 -132.5q0 -68 -25 -131.5t-70 -115.5l95 -123h-116l-47 60q-48 -35 -103 -52.5t-112 -17.5zM444 615
q-54 0 -103 -22.5t-90 -62.5q-40 -40 -62 -92.5t-22 -106.5q0 -51 16.5 -96.5t50.5 -80.5t78.5 -52t93.5 -17q42 0 80.5 13.5t73.5 38.5l-137 178l75 55l129 -168q27 37 41.5 80t14.5 87q0 51 -16.5 96.5t-50.5 80.5t-78.5 52t-93.5 17z" />
    <glyph glyph-name="R" unicode="R" horiz-adv-x="630" 
d="M489 0l-217 330h-68l-58 -330h-99l123 700h233q43 0 71 -8t48 -23q33 -24 52.5 -60t19.5 -81q0 -59 -29 -106t-77 -71q-18 -9 -41 -14.5t-57 -6.5l215 -330h-116zM381 425q29 0 45.5 5t27.5 14q18 14 29 34.5t11 43.5q0 20 -7.5 37t-20.5 28q-11 9 -26 13.5t-44 4.5h-144
l-31 -180h160z" />
    <glyph glyph-name="S" unicode="S" horiz-adv-x="520" 
d="M76 170q32 -38 75.5 -61.5t95.5 -23.5q25 0 48.5 8t41.5 22.5t29 35.5t11 47q0 37 -20 62t-49.5 44t-64.5 36.5t-64.5 40.5t-49.5 54.5t-20 79.5q0 43 19 79t50.5 62t72.5 40t85 14q54 0 105.5 -18.5t93.5 -59.5l-63 -73q-26 26 -61 41t-73 15q-20 0 -43 -5t-42 -16.5
t-31.5 -29.5t-12.5 -43q0 -29 20 -49t49.5 -38t64.5 -37t64.5 -45t49.5 -63t20 -91q0 -45 -18.5 -83t-50.5 -65.5t-74 -43.5t-89 -16q-33 0 -66.5 7t-65 21.5t-59.5 35.5t-49 50z" />
    <glyph glyph-name="T" unicode="T" horiz-adv-x="504" 
d="M99 700h469l-17 -95h-185l-106 -605h-99l106 605h-185z" />
    <glyph glyph-name="U" unicode="U" horiz-adv-x="726" 
d="M183 305q-3 -17 -4.5 -34.5t-1.5 -30.5q0 -37 13.5 -65.5t36.5 -48.5t54 -30.5t67 -10.5q86 0 140.5 48.5t72.5 151.5l73 415h99l-73 -418q-25 -143 -104 -217.5t-214 -74.5q-55 0 -103 18t-84 50t-57 76t-21 96q0 20 2.5 39t6.5 41l68 390h99z" />
    <glyph glyph-name="V" unicode="V" horiz-adv-x="623" 
d="M182 700l112 -523l296 523h111l-398 -700h-69l-152 700h100z" />
    <glyph glyph-name="W" unicode="W" horiz-adv-x="963" 
d="M190 0l-98 700h98l68 -504l265 504h69l79 -501l243 501h109l-343 -700h-69l-82 516l-270 -516h-69z" />
    <glyph glyph-name="X" unicode="X" horiz-adv-x="647" 
d="M-38 0l327 391l-144 309h110l111 -239l200 239h129l-270 -323l177 -377h-110l-144 307l-257 -307h-129z" />
    <glyph glyph-name="Y" unicode="Y" horiz-adv-x="554" 
d="M168 700l129 -285l231 285h124l-321 -395l-53 -305h-99l56 320l-173 380h106z" />
    <glyph glyph-name="Z" unicode="Z" horiz-adv-x="584" 
d="M143 700h471l-12 -65l-452 -540h378l-17 -95h-521l11 65l452 540h-327z" />
    <glyph glyph-name="bracketleft" unicode="[" horiz-adv-x="450" 
d="M245 700h251l-16 -90h-155l-126 -720h155l-16 -90h-251z" />
    <glyph glyph-name="backslash" unicode="\" horiz-adv-x="308" 
d="M210 0l-205 700h93l205 -700h-93z" />
    <glyph glyph-name="bracketright" unicode="]" horiz-adv-x="450" 
d="M210 -200h-251l16 90h155l126 720h-155l16 90h251z" />
    <glyph glyph-name="asciicircum" unicode="^" horiz-adv-x="500" 
d="M50 350l240 350h65l115 -350h-94l-71 214l-147 -214h-108z" />
    <glyph glyph-name="underscore" unicode="_" horiz-adv-x="483" 
d="M420 0l-14 -80h-440l14 80h440z" />
    <glyph glyph-name="grave" unicode="`" horiz-adv-x="310" 
d="M175 540l-105 150h105l65 -150h-65z" />
    <glyph glyph-name="a" unicode="a" horiz-adv-x="598" 
d="M393 30q-24 -18 -57.5 -29t-71.5 -11q-45 0 -84.5 17t-69 47t-46.5 70t-17 86q0 34 9 68.5t26.5 65t43.5 56.5t60 43q26 13 55.5 20t60.5 7t55.5 -5.5t43.5 -14t33 -18.5t25 -19l9 47h91l-81 -460h-91zM438 325q-22 26 -56 40.5t-70 14.5q-34 0 -64.5 -12t-54 -34
t-37.5 -52.5t-14 -66.5q0 -30 10.5 -55t29 -43t44 -27.5t55.5 -9.5q33 0 67.5 15.5t57.5 39.5z" />
    <glyph glyph-name="b" unicode="b" horiz-adv-x="596" 
d="M258 710l-48 -275q23 16 54.5 25.5t63.5 9.5q40 0 79 -14t71 -43q33 -30 52 -72t19 -91q0 -35 -9 -69t-26.5 -65t-43.5 -56.5t-60 -42.5q-26 -13 -55.5 -20t-60.5 -7t-55.5 5.5t-43.5 14t-33.5 18.5t-24.5 19l-9 -47h-91l125 710h96zM158 135q22 -26 56 -40.5t70 -14.5
q34 0 64.5 12t54 34t37.5 52.5t14 66.5q0 30 -10.5 55t-29 43t-44 27.5t-55.5 9.5q-33 0 -67.5 -15.5t-57.5 -39.5z" />
    <glyph glyph-name="c" unicode="c" horiz-adv-x="520" 
d="M479 85q-35 -45 -85.5 -70t-113.5 -25q-49 0 -91.5 16.5t-74 46.5t-49.5 71t-18 89q0 54 19.5 100.5t53.5 81.5t80.5 55t100.5 20q64 0 114 -28t82 -79l-74 -53q-20 30 -51.5 50t-73.5 20q-32 0 -60.5 -13t-49.5 -35.5t-33.5 -52t-12.5 -61.5q0 -62 38.5 -100t100.5 -38
q42 0 74 18t55 46z" />
    <glyph glyph-name="d" unicode="d" horiz-adv-x="598" 
d="M393 30q-24 -18 -57.5 -29t-71.5 -11q-45 0 -84.5 17t-69 47t-46.5 70t-17 86q0 34 9 68.5t27 65t44 56.5t60 43q26 13 55 20t60 7q56 0 93.5 -17.5t58.5 -35.5l53 293h96l-125 -710h-91zM438 325q-22 26 -56 40.5t-70 14.5q-34 0 -64.5 -12t-54 -34t-37.5 -52.5
t-14 -66.5q0 -30 10.5 -55t29 -43t44 -27.5t55.5 -9.5q33 0 67.5 15.5t57.5 39.5z" />
    <glyph glyph-name="e" unicode="e" horiz-adv-x="537" 
d="M291 470q47 0 85 -16.5t64.5 -46t40.5 -69.5t14 -87q0 -9 -1 -21.5t-3 -19.5h-349q1 -29 11 -54t27.5 -43.5t42 -29t56.5 -10.5q34 0 64 13t58 36l57 -61q-34 -30 -74.5 -50.5t-103.5 -20.5q-39 0 -78 11.5t-72 37.5q-39 31 -61 75.5t-22 98.5q0 53 18 100t50.5 82
t77.5 55t98 20zM288 387q-46 0 -81.5 -26.5t-51.5 -70.5h245q-7 46 -35.5 71.5t-76.5 25.5z" />
    <glyph glyph-name="f" unicode="f" horiz-adv-x="445" 
d="M428 623q-11 3 -21.5 5t-23.5 2q-50 0 -76 -29t-35 -78l-11 -63h160l-15 -85h-160l-66 -375h-96l66 375h-120l15 85h120l14 80q14 82 64.5 131t132.5 49q18 0 37 -2t42 -10z" />
    <glyph glyph-name="g" unicode="g" horiz-adv-x="598" 
d="M386 25q-26 -17 -57.5 -26t-64.5 -9q-45 0 -84.5 17t-69 47t-46.5 70t-17 86q0 34 9 68.5t26.5 65t43.5 56.5t60 43q26 13 55.5 20t60.5 7t55.5 -5.5t43.5 -14t33 -18.5t25 -19l9 47h91l-83 -470q-8 -41 -19.5 -76t-30.5 -64q-31 -49 -82.5 -74.5t-120.5 -25.5
q-45 0 -82 11t-64.5 27t-46.5 34.5t-29 32.5l71 64q23 -32 60.5 -55.5t90.5 -23.5q73 0 110 43t48 112zM438 325q-22 26 -56 40.5t-70 14.5q-34 0 -64.5 -12t-54 -34t-37.5 -52.5t-14 -66.5q0 -30 10.5 -55t29 -43t44 -27.5t55.5 -9.5q33 0 67.5 15.5t57.5 39.5z" />
    <glyph glyph-name="h" unicode="h" horiz-adv-x="598" 
d="M208 426q28 21 62.5 32.5t71.5 11.5q38 0 76.5 -16.5t66.5 -46.5q25 -27 38 -61.5t13 -69.5q0 -16 -2 -38.5t-6 -43.5l-34 -194h-96l34 194q4 20 6 42.5t2 38.5q0 25 -9 44.5t-24 33t-34.5 20.5t-41.5 7q-39 0 -77.5 -20t-67.5 -55l-53 -305h-96l125 710h96z" />
    <glyph glyph-name="i" unicode="i" horiz-adv-x="253" 
d="M131 627q0 26 18 44.5t44 18.5t44.5 -18.5t18.5 -44.5t-18.5 -44t-44.5 -18t-44 18t-18 44zM214 460l-81 -460h-96l81 460h96z" />
    <glyph glyph-name="j" unicode="j" horiz-adv-x="294" 
d="M-62 -157q10 -3 26 -3q48 0 72.5 29.5t32.5 77.5l90 513h96l-93 -530q-7 -37 -18.5 -67.5t-31.5 -53.5q-53 -59 -147 -59q-11 0 -25.5 1.5t-29.5 6.5zM172 627q0 26 18 44.5t44 18.5t44.5 -18.5t18.5 -44.5t-18.5 -44t-44.5 -18t-44 18t-18 44z" />
    <glyph glyph-name="k" unicode="k" horiz-adv-x="528" 
d="M546 460l-267 -214l216 -246h-120l-202 231l-40 -231h-96l125 710h96l-75 -426l219 176h144z" />
    <glyph glyph-name="l" unicode="l" horiz-adv-x="253" 
d="M37 0l125 710h96l-125 -710h-96z" />
    <glyph glyph-name="m" unicode="m" horiz-adv-x="949" 
d="M499 384q13 14 32 29t43 28t53.5 21t64.5 8q38 0 76.5 -15.5t68.5 -47.5q25 -27 37.5 -61.5t12.5 -69.5q0 -16 -2 -38.5t-6 -43.5l-34 -194h-96l34 194q4 20 6 42.5t2 38.5q0 51 -31 78t-75 27q-24 0 -45.5 -7t-41 -19t-37 -27t-31.5 -30q1 -5 1 -10.5v-10.5
q0 -16 -2 -38.5t-6 -43.5l-34 -194h-96l34 194q4 20 6 42.5t2 38.5q0 51 -31 78t-75 27q-40 0 -77 -20t-66 -55l-53 -305h-96l81 460h91l-8 -40q28 23 62.5 36.5t74.5 13.5t83.5 -19t77.5 -67z" />
    <glyph glyph-name="n" unicode="n" horiz-adv-x="598" 
d="M485 407q25 -27 38 -61.5t13 -69.5q0 -16 -2 -38.5t-6 -43.5l-34 -194h-96l34 194q4 20 6 42.5t2 38.5q0 25 -9 44.5t-24 33t-34.5 20.5t-41.5 7q-39 0 -77.5 -20t-67.5 -55l-53 -305h-96l81 460h91l-8 -40q28 23 63.5 36.5t75.5 13.5t78 -16t67 -47z" />
    <glyph glyph-name="o" unicode="o" horiz-adv-x="584" 
d="M442 241q0 30 -10 55.5t-28.5 44t-44 29t-55.5 10.5q-34 0 -63.5 -13t-51.5 -34.5t-34.5 -51t-12.5 -62.5q0 -30 10 -55.5t28.5 -44t44 -29t55.5 -10.5q34 0 63.5 13t51.5 34.5t34.5 51t12.5 62.5zM537 241q0 -53 -20.5 -98.5t-55.5 -79.5t-82 -53.5t-99 -19.5
q-51 0 -93.5 17.5t-73.5 48.5t-48.5 73t-17.5 90q0 52 20.5 98t55.5 80t81.5 53.5t99.5 19.5q51 0 93.5 -17.5t73.5 -48.5t48.5 -73t17.5 -90z" />
    <glyph glyph-name="p" unicode="p" horiz-adv-x="596" 
d="M203 430q24 18 57.5 29t71.5 11q45 0 84.5 -17t69 -47t46.5 -70t17 -86q0 -35 -9 -69t-26.5 -65t-43.5 -56.5t-60 -42.5q-26 -13 -55.5 -20t-60.5 -7q-29 0 -52.5 5.5t-42.5 13.5t-33.5 17.5t-24.5 17.5l-50 -284h-96l123 700h91zM158 135q22 -26 56 -40.5t70 -14.5
q34 0 64.5 12t54 34t37.5 52.5t14 66.5q0 30 -10.5 55t-29 43t-44 27.5t-55.5 9.5q-33 0 -67.5 -15.5t-57.5 -39.5z" />
    <glyph glyph-name="q" unicode="q" horiz-adv-x="598" 
d="M386 25q-26 -17 -57.5 -26t-64.5 -9q-45 0 -84.5 17t-69 47t-46.5 70t-17 86q0 34 9 68.5t26.5 65t43.5 56.5t60 43q26 13 55.5 20t60.5 7t55.5 -5.5t43.5 -14t33 -18.5t25 -19l9 47h91l-123 -700h-96zM438 325q-22 26 -56 40.5t-70 14.5q-34 0 -64.5 -12t-54 -34
t-37.5 -52.5t-14 -66.5q0 -30 10.5 -55t29 -43t44 -27.5t55.5 -9.5q33 0 67.5 15.5t57.5 39.5z" />
    <glyph glyph-name="r" unicode="r" horiz-adv-x="367" 
d="M356 377q-14 3 -27 3q-23 0 -44.5 -7t-40 -18t-34 -25.5t-25.5 -29.5l-52 -300h-96l81 460h91l-9 -44q26 23 61 38.5t70 15.5q13 0 25 -1.5t26 -6.5z" />
    <glyph glyph-name="s" unicode="s" horiz-adv-x="435" 
d="M67 124q26 -21 58 -36t70 -15q34 0 57 16t23 43q0 23 -23 37t-55 28q-21 9 -43 19t-40 24.5t-29 34t-11 46.5q0 34 15 61.5t40 47t57 30t65 10.5q53 0 89.5 -15t64.5 -35l-51 -66q-20 14 -46 23.5t-54 9.5q-12 0 -27 -2.5t-27.5 -9.5t-21.5 -18t-9 -27q0 -11 7 -19
t18.5 -15t26 -13.5t30.5 -13.5q21 -9 42 -20.5t38.5 -27t28 -36.5t10.5 -49q0 -33 -14 -59.5t-37.5 -46t-55 -30t-67.5 -10.5q-51 0 -96.5 15.5t-84.5 48.5z" />
    <glyph glyph-name="t" unicode="t" horiz-adv-x="440" 
d="M359 0q-14 -5 -32.5 -7.5t-35.5 -2.5q-30 0 -59.5 9.5t-53 28t-37.5 46t-14 64.5q0 4 1 12.5t2 18.5t2.5 19.5t2.5 15.5l30 171h-120l15 85h120l23 130h96l-23 -130h149l-15 -85h-149l-32 -185q-3 -18 -5 -33t-2 -22q0 -30 20.5 -45t50.5 -15q12 0 25 2t23 5z" />
    <glyph glyph-name="u" unicode="u" 
d="M107 53q-25 27 -37.5 61.5t-12.5 69.5q0 16 2 38.5t6 43.5l34 194h96l-34 -194q-4 -20 -6 -42.5t-2 -38.5q0 -51 31 -78t75 -27q40 0 77 20t66 55l53 305h96l-81 -460h-91l8 40q-28 -23 -62.5 -36.5t-74.5 -13.5t-77 16t-66 47z" />
    <glyph glyph-name="v" unicode="v" horiz-adv-x="497" 
d="M146 460l79 -305l185 305h105l-278 -460h-65l-120 460h94z" />
    <glyph glyph-name="w" unicode="w" horiz-adv-x="799" 
d="M145 460l71 -310l184 310h65l71 -306l176 306h105l-267 -460h-65l-73 317l-188 -317h-65l-107 460h93z" />
    <glyph glyph-name="x" unicode="x" horiz-adv-x="508" 
d="M246 168l-152 -168h-122l223 246l-126 214h107l85 -148l132 148h123l-204 -225l140 -235h-106z" />
    <glyph glyph-name="y" unicode="y" horiz-adv-x="513" 
d="M533 460l-429 -700h-109l177 289l-114 411h98l82 -303l186 303h109z" />
    <glyph glyph-name="z" unicode="z" horiz-adv-x="485" 
d="M314 375h-233l15 85h374l-10 -60l-304 -315h269l-15 -85h-410l10 60z" />
    <glyph glyph-name="braceleft" unicode="{" horiz-adv-x="450" 
d="M302 536q-5 -27 -7 -49t-3 -42t-2.5 -39.5t-5.5 -42.5q-9 -52 -29.5 -80t-50.5 -45q16 -12 27.5 -31t11.5 -51q0 -26 -7 -56.5t-15 -60t-15 -56t-7 -45.5q0 -26 21 -37t54 -11h25l-16 -89q-5 -1 -11 -1h-11q-23 2 -47 5.5t-45 15.5q-29 16 -47 44.5t-18 64.5q0 29 7 58.5
t16 58.5t16 58.5t7 58.5q0 31 -19 43t-51 13l11 60q42 0 61.5 16t30.5 54q6 21 9 44t4.5 47.5t4 50.5t7.5 54q16 84 65.5 119t129.5 35h20.5t17.5 -1l-16 -89h-21q-39 0 -67 -17.5t-35 -56.5z" />
    <glyph glyph-name="bar" unicode="|" horiz-adv-x="257" 
d="M7 -200l159 900h96l-159 -900h-96z" />
    <glyph glyph-name="braceright" unicode="}" horiz-adv-x="450" 
d="M153 -36q5 27 7 49t3 42t2.5 39.5t5.5 42.5q9 52 29.5 80t50.5 45q-16 12 -27.5 31t-11.5 51q0 26 7 56.5t15 60t15 56t7 45.5q0 26 -21 37t-54 11h-25l16 89q5 1 11 1h11q23 -2 47 -5.5t45 -15.5q29 -16 47 -44.5t18 -64.5q0 -29 -7 -58.5t-16 -58.5t-16 -58.5t-7 -58.5
q0 -31 19 -43t51 -13l-11 -60q-42 0 -61.5 -16t-30.5 -54q-6 -21 -9 -44t-4.5 -47.5t-4 -50.5t-7.5 -54q-16 -84 -66 -119t-129 -35h-20.5t-17.5 1l16 89h21q39 0 67 17.5t35 56.5z" />
    <glyph glyph-name="asciitilde" unicode="~" horiz-adv-x="555" 
d="M540 296q-11 -23 -27 -45.5t-37 -40t-46.5 -28.5t-55.5 -11q-25 0 -44 6.5t-34.5 16.5t-28.5 21t-25 21t-24.5 16.5t-27.5 6.5q-29 0 -52 -24t-37 -53l-76 42q11 23 27 45.5t37 40t46.5 28.5t55.5 11q25 0 44 -6.5t34.5 -16.5t28.5 -21t25 -21t24.5 -16.5t27.5 -6.5
q29 0 52 24t37 53z" />
    <glyph glyph-name="uni00A0" unicode="&#xa0;" horiz-adv-x="275" 
 />
    <glyph glyph-name="exclamdown" unicode="&#xa1;" horiz-adv-x="345" 
d="M187 0l-42 -240h-96l42 240l58 240h66zM281 400q0 -29 -20.5 -49.5t-49.5 -20.5t-49.5 20.5t-20.5 49.5t20.5 49.5t49.5 20.5t49.5 -20.5t20.5 -49.5z" />
    <glyph glyph-name="cent" unicode="&#xa2;" horiz-adv-x="520" 
d="M479 85q-33 -44 -80.5 -68.5t-107.5 -26.5l-18 -105h-96l21 118q-67 23 -109 78.5t-42 131.5q0 51 17.5 95.5t48.5 79t73.5 56t92.5 25.5l19 106h96l-21 -116q78 -25 124 -96l-74 -53q-20 30 -51.5 50t-73.5 20q-32 0 -60.5 -13t-49.5 -35.5t-33.5 -52t-12.5 -61.5
q0 -62 38.5 -100t100.5 -38q42 0 74 18t55 46z" />
    <glyph glyph-name="sterling" unicode="&#xa3;" horiz-adv-x="546" 
d="M405 400l-15 -85h-122v-4q0 -75 -21 -127t-55 -94h289l-16 -90h-475l10 60q50 20 84 47.5t54.5 60.5t29.5 69t9 74v4h-112l15 85h84q-5 22 -9 45t-4 47q0 48 16 88t44.5 69t67 45t83.5 16q64 0 112.5 -30t71.5 -78l-76 -47q-16 30 -44.5 47.5t-63.5 17.5q-24 0 -45.5 -9
t-38 -25.5t-26.5 -40t-10 -53.5q0 -22 5 -44.5t10 -47.5h148z" />
    <glyph glyph-name="currency" unicode="&#xa4;" horiz-adv-x="560" 
d="M89 351q0 31 8.5 59t23.5 52l-76 76l63 63l76 -76q24 15 52 23.5t59 8.5t59 -8.5t52 -23.5l76 76l63 -63l-76 -76q32 -49 32 -111t-32 -111l76 -76l-63 -63l-76 76q-49 -32 -111 -32t-111 32l-76 -76l-63 63l76 76q-15 24 -23.5 52t-8.5 59zM184 351q0 -23 9 -43t24 -35
t35 -24t43 -9t43 9t35 24t24 35t9 43t-9 43t-24 35t-35 24t-43 9t-43 -9t-35 -24t-24 -35t-9 -43z" />
    <glyph glyph-name="yen" unicode="&#xa5;" horiz-adv-x="554" 
d="M525 315l-15 -85h-192l-40 -230h-99l40 230h-191l15 85h194l-32 70h-149l15 85h96l-105 230h106l129 -285l231 285h124l-187 -230h88l-15 -85h-142l-57 -70h186z" />
    <glyph glyph-name="brokenbar" unicode="&#xa6;" horiz-adv-x="299" 
d="M112 310l69 390h96l-69 -390h-96zM187 190l-69 -390h-96l69 390h96z" />
    <glyph glyph-name="section" unicode="&#xa7;" horiz-adv-x="586" 
d="M538 208q0 -56 -31 -101.5t-79 -73.5q7 -14 11 -31t4 -37q0 -44 -19 -79.5t-50.5 -61.5t-72.5 -40t-85 -14q-54 0 -105.5 18.5t-93.5 59.5l63 73q26 -26 61 -41t73 -15q20 0 43 5t42 16.5t31.5 29t12.5 43.5q0 28 -21.5 47.5t-54.5 36.5t-70.5 34.5t-70.5 43t-54.5 61.5
t-21.5 90q0 56 30.5 101.5t78.5 73.5q-14 30 -14 68q0 43 19 79t50.5 62t72.5 40t85 14q54 0 105.5 -18.5t93.5 -59.5l-63 -73q-26 26 -61 41t-73 15q-20 0 -43 -5t-42 -16.5t-31.5 -29.5t-12.5 -43q0 -29 21.5 -48t54.5 -36t70.5 -34.5t70.5 -43t54.5 -61.5t21.5 -90z
M438 208q0 37 -21 60t-53 40.5t-69 32.5t-70 36q-32 -13 -53.5 -40t-21.5 -65q0 -37 21 -60t53 -40.5t69 -33t70 -36.5q32 14 53.5 41t21.5 65z" />
    <glyph glyph-name="dieresis" unicode="&#xa8;" horiz-adv-x="450" 
d="M70 607q0 26 18 44.5t44 18.5t44.5 -18.5t18.5 -44.5t-18.5 -44t-44.5 -18t-44 18t-18 44zM255 607q0 26 18 44.5t44 18.5t44.5 -18.5t18.5 -44.5t-18.5 -44t-44.5 -18t-44 18t-18 44z" />
    <glyph glyph-name="copyright" unicode="&#xa9;" horiz-adv-x="840" 
d="M537 450q-17 14 -38.5 24.5t-51.5 10.5q-52 0 -86 -37t-34 -95q0 -28 9 -52.5t25.5 -42.5t39.5 -28t52 -10q32 0 54 11t41 25l39 -52q-26 -23 -60 -37.5t-76 -14.5q-44 0 -80 15.5t-62 42.5t-40.5 64t-14.5 79t14.5 78.5t40.5 63.5t61 42.5t77 15.5q41 0 72.5 -14.5
t56.5 -37.5zM90 350q0 72 27.5 136t75 111.5t111.5 75t136 27.5t136 -27.5t111.5 -75t75 -111.5t27.5 -136t-27.5 -136t-75 -111.5t-111.5 -75t-136 -27.5t-136 27.5t-111.5 75t-75 111.5t-27.5 136zM155 350q0 -59 22.5 -110.5t61 -90t90 -61t110.5 -22.5t111 22.5t90.5 61
t61 90t22.5 110.5t-22.5 111t-61 90.5t-90.5 61t-111 22.5t-110.5 -22.5t-90 -61t-61 -90.5t-22.5 -111z" />
    <glyph glyph-name="ordfeminine" unicode="&#xaa;" horiz-adv-x="442" 
d="M351 606q-11 11 -28.5 20t-40.5 9q-17 0 -34 -6t-30.5 -17.5t-22 -28.5t-8.5 -39q0 -36 23 -57.5t55 -21.5q21 0 38.5 8t26.5 19zM319 400l4 20q-11 -12 -28 -21t-44 -9q-26 0 -50.5 10.5t-44.5 29.5q-21 20 -35 49t-14 65q0 40 16 71t41 52t55 32t58 11q20 0 35 -4
t26 -9.5t18 -11.5t11 -10l5 25h75l-53 -300h-75z" />
    <glyph glyph-name="guillemotleft" unicode="&#xab;" horiz-adv-x="611" 
d="M158 227l113 -177h-106l-103 165l8 50l161 165h125zM398 227l113 -177h-106l-103 165l8 50l161 165h125z" />
    <glyph glyph-name="logicalnot" unicode="&#xac;" horiz-adv-x="550" 
d="M449 120h-90l32 180h-340l16 90h430z" />
    <glyph glyph-name="uni00AD" unicode="&#xad;" horiz-adv-x="453" 
d="M382 295l-14 -80h-290l14 80h290z" />
    <glyph glyph-name="registered" unicode="&#xae;" horiz-adv-x="840" 
d="M566 438q0 -16 -5 -32t-14.5 -30t-23 -24.5t-29.5 -15.5l122 -175h-83l-119 170h-19v-170h-72v383h128q25 0 42.5 -6t31.5 -17q41 -32 41 -83zM395 399h50q17 0 25.5 3t13.5 9q9 10 9 26q0 14 -9 25q-5 6 -13.5 10t-25.5 4h-50v-77zM90 350q0 72 27.5 136t75 111.5
t111.5 75t136 27.5t136 -27.5t111.5 -75t75 -111.5t27.5 -136t-27.5 -136t-75 -111.5t-111.5 -75t-136 -27.5t-136 27.5t-111.5 75t-75 111.5t-27.5 136zM155 350q0 -59 22.5 -110.5t61 -90t90 -61t110.5 -22.5t111 22.5t90.5 61t61 90t22.5 110.5t-22.5 111t-61 90.5
t-90.5 61t-111 22.5t-110.5 -22.5t-90 -61t-61 -90.5t-22.5 -111z" />
    <glyph glyph-name="macron" unicode="&#xaf;" horiz-adv-x="440" 
d="M370 650v-85h-300v85h300z" />
    <glyph glyph-name="degree" unicode="&#xb0;" horiz-adv-x="400" 
d="M90 550q0 33 12.5 62t34.5 51t51 34.5t62 12.5t62 -12.5t51 -34.5t34.5 -51t12.5 -62t-12.5 -62t-34.5 -51t-51 -34.5t-62 -12.5t-62 12.5t-51 34.5t-34.5 51t-12.5 62zM170 550q0 -33 23.5 -56.5t56.5 -23.5t56.5 23.5t23.5 56.5t-23.5 56.5t-56.5 23.5t-56.5 -23.5
t-23.5 -56.5z" />
    <glyph glyph-name="plusminus" unicode="&#xb1;" horiz-adv-x="550" 
d="M271 490h90l-23 -135h170l-16 -90h-170l-23 -135h-90l23 135h-170l16 90h170zM16 10l16 90h430l-16 -90h-430z" />
    <glyph glyph-name="twosuperior" unicode="&#xb2;" horiz-adv-x="285" 
d="M80 634q14 39 46.5 62.5t75.5 23.5q22 0 43 -8.5t36.5 -23t25 -35t9.5 -44.5q0 -32 -14.5 -58.5t-38.5 -49.5l-84 -81h111l-12 -70h-242l7 40l149 146q26 26 37.5 41.5t11.5 31.5q0 19 -13 30t-29 11q-20 0 -31.5 -12t-16.5 -29z" />
    <glyph glyph-name="threesuperior" unicode="&#xb3;" horiz-adv-x="280" 
d="M231 567q30 -13 47 -42.5t17 -64.5q0 -29 -11 -52.5t-29.5 -41t-44 -27t-54.5 -9.5q-39 0 -72.5 19t-48.5 52l63 37q8 -15 23 -26.5t35 -11.5q29 0 46.5 18t17.5 42q0 25 -17 41t-42 16q-16 0 -26 -3t-15 -5l7 40l75 81h-122l13 70h227l-7 -41z" />
    <glyph glyph-name="acute" unicode="&#xb4;" horiz-adv-x="310" 
d="M70 540l65 150h105l-105 -150h-65z" />
    <glyph glyph-name="mu" unicode="&#xb5;" horiz-adv-x="609" 
d="M270 -10q-78 0 -129 54l-50 -284h-96l123 700h96l-34 -194q-4 -20 -6 -42.5t-2 -38.5q0 -51 31 -78t75 -27q40 0 77 20t66 55l53 305h96l-81 -460h-91l8 40q-28 -23 -62.5 -36.5t-73.5 -13.5z" />
    <glyph glyph-name="paragraph" unicode="&#xb6;" horiz-adv-x="689" 
d="M82 469q0 51 19.5 94.5t53.5 75.5q31 29 73 45t102 16h399l-16 -90h-99l-144 -810h-96l144 810h-98l-144 -810h-96l83 470q-39 3 -72 20t-57.5 43.5t-38 61t-13.5 74.5zM324 610q-32 0 -58.5 -10t-46.5 -28t-31 -42.5t-11 -54.5q0 -49 28 -80.5t75 -34.5z" />
    <glyph glyph-name="periodcentered" unicode="&#xb7;" horiz-adv-x="340" 
d="M95 230q0 29 20.5 49.5t49.5 20.5t49.5 -20.5t20.5 -49.5t-20.5 -49.5t-49.5 -20.5t-49.5 20.5t-20.5 49.5z" />
    <glyph glyph-name="cedilla" unicode="&#xb8;" horiz-adv-x="275" 
d="M205 10l-30 -150h-105l70 150h65z" />
    <glyph glyph-name="onesuperior" unicode="&#xb9;" horiz-adv-x="223" 
d="M90 644l119 56h45l-64 -360h-76l47 261l-85 -36z" />
    <glyph glyph-name="ordmasculine" unicode="&#xba;" horiz-adv-x="423" 
d="M261 465q18 0 33.5 7.5t27 20t18 29.5t6.5 35q0 34 -19.5 56t-54.5 22q-18 0 -33.5 -7.5t-27 -20t-18 -29.5t-6.5 -35q0 -34 19.5 -56t54.5 -22zM257 390q-32 0 -59.5 11.5t-47.5 32t-31.5 47.5t-11.5 58q0 35 12.5 66t35 54.5t53.5 37t68 13.5q32 0 59.5 -11.5t47.5 -32
t31.5 -47.5t11.5 -58q0 -35 -12.5 -66.5t-35 -54.5t-53.5 -36.5t-68 -13.5z" />
    <glyph glyph-name="guillemotright" unicode="&#xbb;" horiz-adv-x="611" 
d="M213 253l-113 177h106l103 -165l-8 -50l-161 -165h-125zM453 253l-113 177h106l103 -165l-8 -50l-161 -165h-125z" />
    <glyph glyph-name="onequarter" unicode="&#xbc;" horiz-adv-x="624" 
d="M90 644l119 56h45l-64 -360h-76l47 261l-85 -36zM4 0l532 700h93l-532 -700h-93zM584 360l-40 -219h50l-11 -64h-49l-14 -77h-76l14 77h-175l8 45l248 238h45zM469 141l14 77l-77 -77h63z" />
    <glyph glyph-name="onehalf" unicode="&#xbd;" horiz-adv-x="663" 
d="M90 644l119 56h45l-64 -360h-76l47 261l-85 -36zM4 0l532 700h93l-532 -700h-93zM397 284q14 39 46.5 62.5t75.5 23.5q22 0 43 -8.5t36.5 -23t25 -35t9.5 -44.5q0 -32 -14.5 -58.5t-38.5 -49.5l-84 -81h111l-12 -70h-242l7 40l149 146q26 26 37.5 41.5t11.5 31.5
q0 19 -13 30t-29 11q-20 0 -31.5 -12t-16.5 -29z" />
    <glyph glyph-name="threequarters" unicode="&#xbe;" horiz-adv-x="671" 
d="M231 567q30 -13 47 -42.5t17 -64.5q0 -29 -11 -52.5t-29.5 -41t-44 -27t-54.5 -9.5q-39 0 -72.5 19t-48.5 52l63 37q8 -15 23 -26.5t35 -11.5q29 0 46.5 18t17.5 42q0 25 -17 41t-42 16q-16 0 -26 -3t-15 -5l7 40l75 81h-122l13 70h227l-7 -41zM50 0l532 700h93
l-532 -700h-93zM631 360l-40 -219h50l-11 -64h-49l-14 -77h-76l14 77h-175l8 45l248 238h45zM516 141l14 77l-77 -77h63z" />
    <glyph glyph-name="questiondown" unicode="&#xbf;" horiz-adv-x="504" 
d="M414 -124q-12 -29 -32.5 -52t-47 -39.5t-56.5 -25.5t-60 -9q-44 0 -79 14t-60.5 37.5t-39 54.5t-13.5 66q0 42 16.5 73.5t41.5 56t53.5 43t53.5 35t41.5 32.5t16.5 34q0 17 -16 35l69 60q42 -46 42 -100q0 -33 -16.5 -58.5t-41.5 -46.5t-53.5 -39t-53.5 -37t-41.5 -40
t-16.5 -47q0 -36 28.5 -59.5t68.5 -23.5q18 0 35.5 6.5t32.5 17t26.5 24t17.5 28.5zM380 400q0 -29 -20.5 -49.5t-49.5 -20.5t-49.5 20.5t-20.5 49.5t20.5 49.5t49.5 20.5t49.5 -20.5t20.5 -49.5z" />
    <glyph glyph-name="Agrave" unicode="&#xc0;" horiz-adv-x="643" 
d="M-40 0l413 700h69l167 -700h-99l-43 180h-290l-105 -180h-112zM233 275h212l-61 257zM383 750l-105 150h105l65 -150h-65z" />
    <glyph glyph-name="Aacute" unicode="&#xc1;" horiz-adv-x="643" 
d="M-40 0l413 700h69l167 -700h-99l-43 180h-290l-105 -180h-112zM233 275h212l-61 257zM384 750l65 150h105l-105 -150h-65z" />
    <glyph glyph-name="Acircumflex" unicode="&#xc2;" horiz-adv-x="643" 
d="M-40 0l413 700h69l167 -700h-99l-43 180h-290l-105 -180h-112zM233 275h212l-61 257zM253 750l122 150h110l68 -150h-65l-58 88l-112 -88h-65z" />
    <glyph glyph-name="Atilde" unicode="&#xc3;" horiz-adv-x="643" 
d="M-40 0l413 700h69l167 -700h-99l-43 180h-290l-105 -180h-112zM233 275h212l-61 257zM258 781q1 22 8.5 42t20.5 35t31 23.5t41 8.5q19 0 37 -7t35 -15.5t33 -15.5t31 -7q17 0 25.5 11.5t12.5 33.5l65 -21q-1 -22 -8.5 -42t-20.5 -35t-31.5 -23.5t-40.5 -8.5q-19 0 -37 7
t-35 15.5t-33 15.5t-31 7q-17 0 -25.5 -11.5t-12.5 -33.5z" />
    <glyph glyph-name="Adieresis" unicode="&#xc4;" horiz-adv-x="643" 
d="M-40 0l413 700h69l167 -700h-99l-43 180h-290l-105 -180h-112zM233 275h212l-61 257zM268 817q0 26 18 44.5t44 18.5t44.5 -18.5t18.5 -44.5t-18.5 -44t-44.5 -18t-44 18t-18 44zM453 817q0 26 18 44.5t44 18.5t44.5 -18.5t18.5 -44.5t-18.5 -44t-44.5 -18t-44 18t-18 44
z" />
    <glyph glyph-name="Aring" unicode="&#xc5;" horiz-adv-x="643" 
d="M-40 0l413 700h69l167 -700h-99l-43 180h-290l-105 -180h-112zM233 275h212l-61 257zM320 830q0 42 29 71t71 29t71 -29t29 -71t-29 -71t-71 -29t-71 29t-29 71zM380 830q0 -17 11.5 -28.5t28.5 -11.5t28.5 11.5t11.5 28.5t-11.5 28.5t-28.5 11.5t-28.5 -11.5
t-11.5 -28.5z" />
    <glyph glyph-name="AE" unicode="&#xc6;" horiz-adv-x="917" 
d="M-50 0l542 700h460l-17 -95h-301l-32 -180h232l-17 -95h-231l-42 -235h312l-17 -95h-410l32 180h-250l-139 -180h-122zM477 275l57 325l-250 -325h193z" />
    <glyph glyph-name="Ccedilla" unicode="&#xc7;" horiz-adv-x="717" 
d="M444 710q93 0 163.5 -34.5t122.5 -88.5l-69 -67q-38 39 -90 67t-127 28q-62 0 -113 -23.5t-87.5 -63t-56.5 -91t-20 -106.5t19 -100.5t53 -77.5t80.5 -50t100.5 -18q62 0 112 24t91 67l68 -67q-53 -57 -120.5 -87t-143.5 -32l-26 -130h-105l62 135q-63 9 -116.5 37
t-92 72t-60.5 101t-22 125q0 76 28 144.5t78 121t119 83.5t152 31z" />
    <glyph glyph-name="Egrave" unicode="&#xc8;" horiz-adv-x="535" 
d="M452 425l-17 -95h-231l-42 -235h312l-17 -95h-410l123 700h400l-17 -95h-301l-32 -180h232zM365 750l-105 150h105l65 -150h-65z" />
    <glyph glyph-name="Eacute" unicode="&#xc9;" horiz-adv-x="535" 
d="M452 425l-17 -95h-231l-42 -235h312l-17 -95h-410l123 700h400l-17 -95h-301l-32 -180h232zM334 750l65 150h105l-105 -150h-65z" />
    <glyph glyph-name="Ecircumflex" unicode="&#xca;" horiz-adv-x="535" 
d="M452 425l-17 -95h-231l-42 -235h312l-17 -95h-410l123 700h400l-17 -95h-301l-32 -180h232zM227 750l122 150h110l68 -150h-65l-58 88l-112 -88h-65z" />
    <glyph glyph-name="Edieresis" unicode="&#xcb;" horiz-adv-x="535" 
d="M452 425l-17 -95h-231l-42 -235h312l-17 -95h-410l123 700h400l-17 -95h-301l-32 -180h232zM234 817q0 26 18 44.5t44 18.5t44.5 -18.5t18.5 -44.5t-18.5 -44t-44.5 -18t-44 18t-18 44zM419 817q0 26 18 44.5t44 18.5t44.5 -18.5t18.5 -44.5t-18.5 -44t-44.5 -18t-44 18
t-18 44z" />
    <glyph glyph-name="Igrave" unicode="&#xcc;" horiz-adv-x="276" 
d="M47 0l123 700h99l-123 -700h-99zM204 750l-105 150h105l65 -150h-65z" />
    <glyph glyph-name="Iacute" unicode="&#xcd;" horiz-adv-x="276" 
d="M47 0l123 700h99l-123 -700h-99zM190 750l65 150h105l-105 -150h-65z" />
    <glyph glyph-name="Icircumflex" unicode="&#xce;" horiz-adv-x="276" 
d="M47 0l123 700h99l-123 -700h-99zM80 750l122 150h110l68 -150h-65l-58 88l-112 -88h-65z" />
    <glyph glyph-name="Idieresis" unicode="&#xcf;" horiz-adv-x="276" 
d="M47 0l123 700h99l-123 -700h-99zM91 817q0 26 18 44.5t44 18.5t44.5 -18.5t18.5 -44.5t-18.5 -44t-44.5 -18t-44 18t-18 44zM276 817q0 26 18 44.5t44 18.5t44.5 -18.5t18.5 -44.5t-18.5 -44t-44.5 -18t-44 18t-18 44z" />
    <glyph glyph-name="Eth" unicode="&#xd0;" horiz-adv-x="731" 
d="M354 700q85 0 148.5 -24t109.5 -70q45 -46 68.5 -107t23.5 -129q0 -74 -29.5 -141t-80.5 -119q-52 -54 -122.5 -82t-155.5 -28h-269l58 330h-100l16 95h100l49 275h184zM421 425l-17 -95h-200l-41 -235h154q67 0 117 22t89 60q38 38 59.5 88.5t21.5 103.5
q0 48 -16.5 92.5t-48.5 77.5t-77.5 49.5t-107.5 16.5h-101l-32 -180h200z" />
    <glyph glyph-name="Ntilde" unicode="&#xd1;" horiz-adv-x="768" 
d="M47 0l123 700h69l331 -525l92 525h99l-123 -700h-69l-331 524l-92 -524h-99zM308 781q1 22 8.5 42t20.5 35t31 23.5t41 8.5q19 0 37 -7t35 -15.5t33 -15.5t31 -7q17 0 25.5 11.5t12.5 33.5l65 -21q-1 -22 -8.5 -42t-20.5 -35t-31.5 -23.5t-40.5 -8.5q-19 0 -37 7
t-35 15.5t-33 15.5t-31 7q-17 0 -25.5 -11.5t-12.5 -33.5z" />
    <glyph glyph-name="Ograve" unicode="&#xd2;" horiz-adv-x="810" 
d="M444 615q-54 0 -103 -22.5t-90 -62.5q-40 -40 -62 -92.5t-22 -106.5q0 -51 16.5 -96.5t50.5 -80.5t78.5 -52t93.5 -17q54 0 103 22.5t90 62.5q40 40 62 92.5t22 106.5q0 51 -16.5 96.5t-50.5 80.5t-78.5 52t-93.5 17zM405 -10q-71 0 -133 24.5t-110 72.5
q-47 48 -71 110.5t-24 132.5q0 75 30 144t83 123q54 55 123.5 84t141.5 29q71 0 133 -24.5t110 -72.5q47 -48 71 -110.5t24 -132.5q0 -75 -30 -144t-83 -123q-54 -55 -123.5 -84t-141.5 -29zM462 750l-105 150h105l65 -150h-65z" />
    <glyph glyph-name="Oacute" unicode="&#xd3;" horiz-adv-x="810" 
d="M444 615q-54 0 -103 -22.5t-90 -62.5q-40 -40 -62 -92.5t-22 -106.5q0 -51 16.5 -96.5t50.5 -80.5t78.5 -52t93.5 -17q54 0 103 22.5t90 62.5q40 40 62 92.5t22 106.5q0 51 -16.5 96.5t-50.5 80.5t-78.5 52t-93.5 17zM405 -10q-71 0 -133 24.5t-110 72.5
q-47 48 -71 110.5t-24 132.5q0 75 30 144t83 123q54 55 123.5 84t141.5 29q71 0 133 -24.5t110 -72.5q47 -48 71 -110.5t24 -132.5q0 -75 -30 -144t-83 -123q-54 -55 -123.5 -84t-141.5 -29zM422 750l65 150h105l-105 -150h-65z" />
    <glyph glyph-name="Ocircumflex" unicode="&#xd4;" horiz-adv-x="810" 
d="M444 615q-54 0 -103 -22.5t-90 -62.5q-40 -40 -62 -92.5t-22 -106.5q0 -51 16.5 -96.5t50.5 -80.5t78.5 -52t93.5 -17q54 0 103 22.5t90 62.5q40 40 62 92.5t22 106.5q0 51 -16.5 96.5t-50.5 80.5t-78.5 52t-93.5 17zM405 -10q-71 0 -133 24.5t-110 72.5
q-47 48 -71 110.5t-24 132.5q0 75 30 144t83 123q54 55 123.5 84t141.5 29q71 0 133 -24.5t110 -72.5q47 -48 71 -110.5t24 -132.5q0 -75 -30 -144t-83 -123q-54 -55 -123.5 -84t-141.5 -29zM324 750l122 150h110l68 -150h-65l-58 88l-112 -88h-65z" />
    <glyph glyph-name="Otilde" unicode="&#xd5;" horiz-adv-x="810" 
d="M444 615q-54 0 -103 -22.5t-90 -62.5q-40 -40 -62 -92.5t-22 -106.5q0 -51 16.5 -96.5t50.5 -80.5t78.5 -52t93.5 -17q54 0 103 22.5t90 62.5q40 40 62 92.5t22 106.5q0 51 -16.5 96.5t-50.5 80.5t-78.5 52t-93.5 17zM405 -10q-71 0 -133 24.5t-110 72.5
q-47 48 -71 110.5t-24 132.5q0 75 30 144t83 123q54 55 123.5 84t141.5 29q71 0 133 -24.5t110 -72.5q47 -48 71 -110.5t24 -132.5q0 -75 -30 -144t-83 -123q-54 -55 -123.5 -84t-141.5 -29zM328 781q1 22 8.5 42t20.5 35t31 23.5t41 8.5q19 0 37 -7t35 -15.5t33 -15.5
t31 -7q17 0 25.5 11.5t12.5 33.5l65 -21q-1 -22 -8.5 -42t-20.5 -35t-31.5 -23.5t-40.5 -8.5q-19 0 -37 7t-35 15.5t-33 15.5t-31 7q-17 0 -25.5 -11.5t-12.5 -33.5z" />
    <glyph glyph-name="Odieresis" unicode="&#xd6;" horiz-adv-x="810" 
d="M444 615q-54 0 -103 -22.5t-90 -62.5q-40 -40 -62 -92.5t-22 -106.5q0 -51 16.5 -96.5t50.5 -80.5t78.5 -52t93.5 -17q54 0 103 22.5t90 62.5q40 40 62 92.5t22 106.5q0 51 -16.5 96.5t-50.5 80.5t-78.5 52t-93.5 17zM405 -10q-71 0 -133 24.5t-110 72.5
q-47 48 -71 110.5t-24 132.5q0 75 30 144t83 123q54 55 123.5 84t141.5 29q71 0 133 -24.5t110 -72.5q47 -48 71 -110.5t24 -132.5q0 -75 -30 -144t-83 -123q-54 -55 -123.5 -84t-141.5 -29zM341 817q0 26 18 44.5t44 18.5t44.5 -18.5t18.5 -44.5t-18.5 -44t-44.5 -18
t-44 18t-18 44zM526 817q0 26 18 44.5t44 18.5t44.5 -18.5t18.5 -44.5t-18.5 -44t-44.5 -18t-44 18t-18 44z" />
    <glyph glyph-name="multiply" unicode="&#xd7;" horiz-adv-x="540" 
d="M39 115l172 146l-119 146l69 57l118 -145l171 145l59 -69l-172 -146l119 -146l-69 -57l-119 145l-170 -145z" />
    <glyph glyph-name="Oslash" unicode="&#xd8;" horiz-adv-x="810" 
d="M27 -10l113 121q-36 45 -54.5 101t-18.5 118q0 75 30 144t83 123q54 55 123.5 84t141.5 29q55 0 105 -15.5t93 -44.5l46 50h125l-104 -112q36 -45 54.5 -101t18.5 -117q0 -75 -30 -144t-83 -123q-54 -55 -123.5 -84t-141.5 -29q-113 0 -198 59l-55 -59h-125zM444 615
q-54 0 -103 -22.5t-90 -62.5q-40 -40 -62 -92.5t-22 -106.5q0 -40 10 -77t31 -69l367 393q-59 37 -131 37zM683 369q0 40 -10.5 77t-31.5 69l-367 -394q29 -18 63 -27t69 -9q54 0 103 22.5t90 62.5q40 40 62 92.5t22 106.5z" />
    <glyph glyph-name="Ugrave" unicode="&#xd9;" horiz-adv-x="726" 
d="M183 305q-3 -17 -4.5 -34.5t-1.5 -30.5q0 -37 13.5 -65.5t36.5 -48.5t54 -30.5t67 -10.5q86 0 140.5 48.5t72.5 151.5l73 415h99l-73 -418q-25 -143 -104 -217.5t-214 -74.5q-55 0 -103 18t-84 50t-57 76t-21 96q0 20 2.5 39t6.5 41l68 390h99zM439 750l-105 150h105
l65 -150h-65z" />
    <glyph glyph-name="Uacute" unicode="&#xda;" horiz-adv-x="726" 
d="M183 305q-3 -17 -4.5 -34.5t-1.5 -30.5q0 -37 13.5 -65.5t36.5 -48.5t54 -30.5t67 -10.5q86 0 140.5 48.5t72.5 151.5l73 415h99l-73 -418q-25 -143 -104 -217.5t-214 -74.5q-55 0 -103 18t-84 50t-57 76t-21 96q0 20 2.5 39t6.5 41l68 390h99zM408 750l65 150h105
l-105 -150h-65z" />
    <glyph glyph-name="Ucircumflex" unicode="&#xdb;" horiz-adv-x="726" 
d="M183 305q-3 -17 -4.5 -34.5t-1.5 -30.5q0 -37 13.5 -65.5t36.5 -48.5t54 -30.5t67 -10.5q86 0 140.5 48.5t72.5 151.5l73 415h99l-73 -418q-25 -143 -104 -217.5t-214 -74.5q-55 0 -103 18t-84 50t-57 76t-21 96q0 20 2.5 39t6.5 41l68 390h99zM301 750l122 150h110
l68 -150h-65l-58 88l-112 -88h-65z" />
    <glyph glyph-name="Udieresis" unicode="&#xdc;" horiz-adv-x="726" 
d="M183 305q-3 -17 -4.5 -34.5t-1.5 -30.5q0 -37 13.5 -65.5t36.5 -48.5t54 -30.5t67 -10.5q86 0 140.5 48.5t72.5 151.5l73 415h99l-73 -418q-25 -143 -104 -217.5t-214 -74.5q-55 0 -103 18t-84 50t-57 76t-21 96q0 20 2.5 39t6.5 41l68 390h99zM309 817q0 26 18 44.5
t44 18.5t44.5 -18.5t18.5 -44.5t-18.5 -44t-44.5 -18t-44 18t-18 44zM494 817q0 26 18 44.5t44 18.5t44.5 -18.5t18.5 -44.5t-18.5 -44t-44.5 -18t-44 18t-18 44z" />
    <glyph glyph-name="Yacute" unicode="&#xdd;" horiz-adv-x="554" 
d="M168 700l129 -285l231 285h124l-321 -395l-53 -305h-99l56 320l-173 380h106zM302 750l65 150h105l-105 -150h-65z" />
    <glyph glyph-name="Thorn" unicode="&#xde;" horiz-adv-x="606" 
d="M47 0l123 700h99l-27 -155h143q45 0 74.5 -8.5t51.5 -24.5q35 -25 55.5 -63t20.5 -85q0 -62 -30.5 -111.5t-81.5 -75.5q-21 -11 -47 -16.5t-67 -5.5h-188l-27 -155h-99zM362 250q32 0 50 5.5t31 15.5q20 15 32 38t12 49q0 23 -8.5 41.5t-22.5 30.5q-11 10 -28 15t-49 5
h-154l-35 -200h172z" />
    <glyph glyph-name="germandbls" unicode="&#xdf;" horiz-adv-x="582" 
d="M535 223q0 -54 -21 -97.5t-55.5 -73.5t-79 -46t-90.5 -16q-28 0 -55.5 5t-49.5 17l36 79q11 -5 30 -8t40 -3q33 0 60.5 11t47.5 30t31 45t11 57q0 22 -7 43t-22 37.5t-40 26.5t-61 10h-38l16 90h14q130 0 130 107q0 18 -6.5 35t-18.5 29.5t-29.5 20.5t-39.5 8
q-20 0 -38 -5t-33 -18.5t-26.5 -38t-18.5 -63.5l-89 -505h-96l92 524q9 54 28.5 91.5t46.5 60.5t60.5 33.5t69.5 10.5q44 0 79.5 -14.5t61 -39t39 -57.5t13.5 -70q0 -53 -24 -92.5t-55 -59.5q36 -26 61.5 -66.5t25.5 -97.5z" />
    <glyph glyph-name="agrave" unicode="&#xe0;" horiz-adv-x="598" 
d="M393 30q-24 -18 -57.5 -29t-71.5 -11q-45 0 -84.5 17t-69 47t-46.5 70t-17 86q0 34 9 68.5t26.5 65t43.5 56.5t60 43q26 13 55.5 20t60.5 7t55.5 -5.5t43.5 -14t33 -18.5t25 -19l9 47h91l-81 -460h-91zM438 325q-22 26 -56 40.5t-70 14.5q-34 0 -64.5 -12t-54 -34
t-37.5 -52.5t-14 -66.5q0 -30 10.5 -55t29 -43t44 -27.5t55.5 -9.5q33 0 67.5 15.5t57.5 39.5zM335 540l-105 150h105l65 -150h-65z" />
    <glyph glyph-name="aacute" unicode="&#xe1;" horiz-adv-x="598" 
d="M393 30q-24 -18 -57.5 -29t-71.5 -11q-45 0 -84.5 17t-69 47t-46.5 70t-17 86q0 34 9 68.5t26.5 65t43.5 56.5t60 43q26 13 55.5 20t60.5 7t55.5 -5.5t43.5 -14t33 -18.5t25 -19l9 47h91l-81 -460h-91zM438 325q-22 26 -56 40.5t-70 14.5q-34 0 -64.5 -12t-54 -34
t-37.5 -52.5t-14 -66.5q0 -30 10.5 -55t29 -43t44 -27.5t55.5 -9.5q33 0 67.5 15.5t57.5 39.5zM296 540l65 150h105l-105 -150h-65z" />
    <glyph glyph-name="acircumflex" unicode="&#xe2;" horiz-adv-x="598" 
d="M393 30q-24 -18 -57.5 -29t-71.5 -11q-45 0 -84.5 17t-69 47t-46.5 70t-17 86q0 34 9 68.5t26.5 65t43.5 56.5t60 43q26 13 55.5 20t60.5 7t55.5 -5.5t43.5 -14t33 -18.5t25 -19l9 47h91l-81 -460h-91zM438 325q-22 26 -56 40.5t-70 14.5q-34 0 -64.5 -12t-54 -34
t-37.5 -52.5t-14 -66.5q0 -30 10.5 -55t29 -43t44 -27.5t55.5 -9.5q33 0 67.5 15.5t57.5 39.5zM198 540l122 150h110l68 -150h-65l-58 88l-112 -88h-65z" />
    <glyph glyph-name="atilde" unicode="&#xe3;" horiz-adv-x="598" 
d="M393 30q-24 -18 -57.5 -29t-71.5 -11q-45 0 -84.5 17t-69 47t-46.5 70t-17 86q0 34 9 68.5t26.5 65t43.5 56.5t60 43q26 13 55.5 20t60.5 7t55.5 -5.5t43.5 -14t33 -18.5t25 -19l9 47h91l-81 -460h-91zM438 325q-22 26 -56 40.5t-70 14.5q-34 0 -64.5 -12t-54 -34
t-37.5 -52.5t-14 -66.5q0 -30 10.5 -55t29 -43t44 -27.5t55.5 -9.5q33 0 67.5 15.5t57.5 39.5zM193 571q1 22 8.5 42t20.5 35t31 23.5t41 8.5q19 0 37 -7t35 -15.5t33 -15.5t31 -7q17 0 25.5 11.5t12.5 33.5l65 -21q-1 -22 -8.5 -42t-20.5 -35t-31.5 -23.5t-40.5 -8.5
q-19 0 -37 7t-35 15.5t-33 15.5t-31 7q-17 0 -25.5 -11.5t-12.5 -33.5z" />
    <glyph glyph-name="adieresis" unicode="&#xe4;" horiz-adv-x="598" 
d="M393 30q-24 -18 -57.5 -29t-71.5 -11q-45 0 -84.5 17t-69 47t-46.5 70t-17 86q0 34 9 68.5t26.5 65t43.5 56.5t60 43q26 13 55.5 20t60.5 7t55.5 -5.5t43.5 -14t33 -18.5t25 -19l9 47h91l-81 -460h-91zM438 325q-22 26 -56 40.5t-70 14.5q-34 0 -64.5 -12t-54 -34
t-37.5 -52.5t-14 -66.5q0 -30 10.5 -55t29 -43t44 -27.5t55.5 -9.5q33 0 67.5 15.5t57.5 39.5zM208 607q0 26 18 44.5t44 18.5t44.5 -18.5t18.5 -44.5t-18.5 -44t-44.5 -18t-44 18t-18 44zM393 607q0 26 18 44.5t44 18.5t44.5 -18.5t18.5 -44.5t-18.5 -44t-44.5 -18t-44 18
t-18 44z" />
    <glyph glyph-name="aring" unicode="&#xe5;" horiz-adv-x="598" 
d="M393 30q-24 -18 -57.5 -29t-71.5 -11q-45 0 -84.5 17t-69 47t-46.5 70t-17 86q0 34 9 68.5t26.5 65t43.5 56.5t60 43q26 13 55.5 20t60.5 7t55.5 -5.5t43.5 -14t33 -18.5t25 -19l9 47h91l-81 -460h-91zM438 325q-22 26 -56 40.5t-70 14.5q-34 0 -64.5 -12t-54 -34
t-37.5 -52.5t-14 -66.5q0 -30 10.5 -55t29 -43t44 -27.5t55.5 -9.5q33 0 67.5 15.5t57.5 39.5zM264 620q0 42 29 71t71 29t71 -29t29 -71t-29 -71t-71 -29t-71 29t-29 71zM324 620q0 -17 11.5 -28.5t28.5 -11.5t28.5 11.5t11.5 28.5t-11.5 28.5t-28.5 11.5t-28.5 -11.5
t-11.5 -28.5z" />
    <glyph glyph-name="ae" unicode="&#xe6;" horiz-adv-x="910" 
d="M664 470q47 0 85 -16.5t64.5 -46t40.5 -69.5t14 -87q0 -9 -1 -21.5t-3 -19.5h-353q0 -29 10 -54t28 -43.5t43.5 -29t57.5 -10.5q34 0 65 13t59 36l57 -61q-34 -30 -74.5 -50.5t-103.5 -20.5q-45 0 -91.5 16.5t-78.5 51.5l-10 -58h-86l6 30q-24 -18 -57.5 -29t-71.5 -11
q-45 0 -84.5 17t-69 47t-46.5 70t-17 86q0 34 9 68.5t26.5 65t43.5 56.5t60 43q26 13 55.5 20t60.5 7t55.5 -5.5t43.5 -14t33 -18.5t25 -19l9 47h86l-5 -25q23 16 52.5 25.5t62.5 9.5zM438 325q-22 26 -56 40.5t-70 14.5q-34 0 -64.5 -12t-54 -34t-37.5 -52.5t-14 -66.5
q0 -30 10.5 -55t29 -43t44 -27.5t55.5 -9.5q33 0 67.5 15.5t57.5 39.5zM773 290q-7 44 -38 70.5t-79 26.5q-45 0 -80.5 -27t-51.5 -70h249z" />
    <glyph glyph-name="ccedilla" unicode="&#xe7;" horiz-adv-x="520" 
d="M479 85q-34 -44 -82 -68.5t-108 -26.5l-26 -130h-105l64 137q-38 9 -70.5 28.5t-55.5 47.5t-36 63.5t-13 76.5q0 54 19.5 100.5t53.5 81.5t80.5 55t100.5 20q64 0 114 -28t82 -79l-74 -53q-20 30 -51.5 50t-73.5 20q-32 0 -60.5 -13t-49.5 -35.5t-33.5 -52t-12.5 -61.5
q0 -62 38.5 -100t100.5 -38q42 0 74 18t55 46z" />
    <glyph glyph-name="egrave" unicode="&#xe8;" horiz-adv-x="537" 
d="M291 470q47 0 85 -16.5t64.5 -46t40.5 -69.5t14 -87q0 -9 -1 -21.5t-3 -19.5h-349q1 -29 11 -54t27.5 -43.5t42 -29t56.5 -10.5q34 0 64 13t58 36l57 -61q-34 -30 -74.5 -50.5t-103.5 -20.5q-39 0 -78 11.5t-72 37.5q-39 31 -61 75.5t-22 98.5q0 53 18 100t50.5 82
t77.5 55t98 20zM288 387q-46 0 -81.5 -26.5t-51.5 -70.5h245q-7 46 -35.5 71.5t-76.5 25.5zM303 540l-105 150h105l65 -150h-65z" />
    <glyph glyph-name="eacute" unicode="&#xe9;" horiz-adv-x="537" 
d="M291 470q47 0 85 -16.5t64.5 -46t40.5 -69.5t14 -87q0 -9 -1 -21.5t-3 -19.5h-349q1 -29 11 -54t27.5 -43.5t42 -29t56.5 -10.5q34 0 64 13t58 36l57 -61q-34 -30 -74.5 -50.5t-103.5 -20.5q-39 0 -78 11.5t-72 37.5q-39 31 -61 75.5t-22 98.5q0 53 18 100t50.5 82
t77.5 55t98 20zM288 387q-46 0 -81.5 -26.5t-51.5 -70.5h245q-7 46 -35.5 71.5t-76.5 25.5zM263 540l65 150h105l-105 -150h-65z" />
    <glyph glyph-name="ecircumflex" unicode="&#xea;" horiz-adv-x="537" 
d="M291 470q47 0 85 -16.5t64.5 -46t40.5 -69.5t14 -87q0 -9 -1 -21.5t-3 -19.5h-349q1 -29 11 -54t27.5 -43.5t42 -29t56.5 -10.5q34 0 64 13t58 36l57 -61q-34 -30 -74.5 -50.5t-103.5 -20.5q-39 0 -78 11.5t-72 37.5q-39 31 -61 75.5t-22 98.5q0 53 18 100t50.5 82
t77.5 55t98 20zM288 387q-46 0 -81.5 -26.5t-51.5 -70.5h245q-7 46 -35.5 71.5t-76.5 25.5zM165 540l122 150h110l68 -150h-65l-58 88l-112 -88h-65z" />
    <glyph glyph-name="edieresis" unicode="&#xeb;" horiz-adv-x="537" 
d="M291 470q47 0 85 -16.5t64.5 -46t40.5 -69.5t14 -87q0 -9 -1 -21.5t-3 -19.5h-349q1 -29 11 -54t27.5 -43.5t42 -29t56.5 -10.5q34 0 64 13t58 36l57 -61q-34 -30 -74.5 -50.5t-103.5 -20.5q-39 0 -78 11.5t-72 37.5q-39 31 -61 75.5t-22 98.5q0 53 18 100t50.5 82
t77.5 55t98 20zM288 387q-46 0 -81.5 -26.5t-51.5 -70.5h245q-7 46 -35.5 71.5t-76.5 25.5zM175 607q0 26 18 44.5t44 18.5t44.5 -18.5t18.5 -44.5t-18.5 -44t-44.5 -18t-44 18t-18 44zM360 607q0 26 18 44.5t44 18.5t44.5 -18.5t18.5 -44.5t-18.5 -44t-44.5 -18t-44 18
t-18 44z" />
    <glyph glyph-name="igrave" unicode="&#xec;" horiz-adv-x="253" 
d="M214 460l-81 -460h-96l81 460h96zM153 540l-105 150h105l65 -150h-65z" />
    <glyph glyph-name="iacute" unicode="&#xed;" horiz-adv-x="253" 
d="M214 460l-81 -460h-96l81 460h96zM142 540l65 150h105l-105 -150h-65z" />
    <glyph glyph-name="icircumflex" unicode="&#xee;" horiz-adv-x="253" 
d="M214 460l-81 -460h-96l81 460h96zM30 540l122 150h110l68 -150h-65l-58 88l-112 -88h-65z" />
    <glyph glyph-name="idieresis" unicode="&#xef;" horiz-adv-x="253" 
d="M214 460l-81 -460h-96l81 460h96zM41 607q0 26 18 44.5t44 18.5t44.5 -18.5t18.5 -44.5t-18.5 -44t-44.5 -18t-44 18t-18 44zM226 607q0 26 18 44.5t44 18.5t44.5 -18.5t18.5 -44.5t-18.5 -44t-44.5 -18t-44 18t-18 44z" />
    <glyph glyph-name="eth" unicode="&#xf0;" horiz-adv-x="582" 
d="M204 586l90 46l-32 78h99l14 -35l79 41l37 -72l-84 -45l81 -193q6 -14 14.5 -33t16 -41t13 -46t5.5 -48q0 -51 -20.5 -96t-55 -79t-80.5 -53.5t-97 -19.5q-50 0 -93.5 17.5t-75.5 48t-50 72.5t-18 91q0 52 20.5 98t55.5 80t81.5 53.5t99.5 19.5q33 0 60 -7l-39 93
l-82 -45zM304 380q-34 0 -63.5 -13t-51.5 -34.5t-34.5 -51t-12.5 -62.5q0 -31 11 -56.5t30.5 -44t45 -28.5t55.5 -10q33 0 62 13t50 35t33.5 51.5t12.5 61.5q0 28 -8 53.5t-22 53.5q-21 15 -47 23.5t-61 8.5z" />
    <glyph glyph-name="ntilde" unicode="&#xf1;" horiz-adv-x="598" 
d="M485 407q25 -27 38 -61.5t13 -69.5q0 -16 -2 -38.5t-6 -43.5l-34 -194h-96l34 194q4 20 6 42.5t2 38.5q0 25 -9 44.5t-24 33t-34.5 20.5t-41.5 7q-39 0 -77.5 -20t-67.5 -55l-53 -305h-96l81 460h91l-8 -40q28 23 63.5 36.5t75.5 13.5t78 -16t67 -47zM190 571
q1 22 8.5 42t20.5 35t31 23.5t41 8.5q19 0 37 -7t35 -15.5t33 -15.5t31 -7q17 0 25.5 11.5t12.5 33.5l65 -21q-1 -22 -8.5 -42t-20.5 -35t-31.5 -23.5t-40.5 -8.5q-19 0 -37 7t-35 15.5t-33 15.5t-31 7q-17 0 -25.5 -11.5t-12.5 -33.5z" />
    <glyph glyph-name="ograve" unicode="&#xf2;" horiz-adv-x="584" 
d="M442 241q0 30 -10 55.5t-28.5 44t-44 29t-55.5 10.5q-34 0 -63.5 -13t-51.5 -34.5t-34.5 -51t-12.5 -62.5q0 -30 10 -55.5t28.5 -44t44 -29t55.5 -10.5q34 0 63.5 13t51.5 34.5t34.5 51t12.5 62.5zM537 241q0 -53 -20.5 -98.5t-55.5 -79.5t-82 -53.5t-99 -19.5
q-51 0 -93.5 17.5t-73.5 48.5t-48.5 73t-17.5 90q0 52 20.5 98t55.5 80t81.5 53.5t99.5 19.5q51 0 93.5 -17.5t73.5 -48.5t48.5 -73t17.5 -90zM326 540l-105 150h105l65 -150h-65z" />
    <glyph glyph-name="oacute" unicode="&#xf3;" horiz-adv-x="584" 
d="M442 241q0 30 -10 55.5t-28.5 44t-44 29t-55.5 10.5q-34 0 -63.5 -13t-51.5 -34.5t-34.5 -51t-12.5 -62.5q0 -30 10 -55.5t28.5 -44t44 -29t55.5 -10.5q34 0 63.5 13t51.5 34.5t34.5 51t12.5 62.5zM537 241q0 -53 -20.5 -98.5t-55.5 -79.5t-82 -53.5t-99 -19.5
q-51 0 -93.5 17.5t-73.5 48.5t-48.5 73t-17.5 90q0 52 20.5 98t55.5 80t81.5 53.5t99.5 19.5q51 0 93.5 -17.5t73.5 -48.5t48.5 -73t17.5 -90zM284 540l65 150h105l-105 -150h-65z" />
    <glyph glyph-name="ocircumflex" unicode="&#xf4;" horiz-adv-x="584" 
d="M442 241q0 30 -10 55.5t-28.5 44t-44 29t-55.5 10.5q-34 0 -63.5 -13t-51.5 -34.5t-34.5 -51t-12.5 -62.5q0 -30 10 -55.5t28.5 -44t44 -29t55.5 -10.5q34 0 63.5 13t51.5 34.5t34.5 51t12.5 62.5zM537 241q0 -53 -20.5 -98.5t-55.5 -79.5t-82 -53.5t-99 -19.5
q-51 0 -93.5 17.5t-73.5 48.5t-48.5 73t-17.5 90q0 52 20.5 98t55.5 80t81.5 53.5t99.5 19.5q51 0 93.5 -17.5t73.5 -48.5t48.5 -73t17.5 -90zM187 540l122 150h110l68 -150h-65l-58 88l-112 -88h-65z" />
    <glyph glyph-name="otilde" unicode="&#xf5;" horiz-adv-x="584" 
d="M442 241q0 30 -10 55.5t-28.5 44t-44 29t-55.5 10.5q-34 0 -63.5 -13t-51.5 -34.5t-34.5 -51t-12.5 -62.5q0 -30 10 -55.5t28.5 -44t44 -29t55.5 -10.5q34 0 63.5 13t51.5 34.5t34.5 51t12.5 62.5zM537 241q0 -53 -20.5 -98.5t-55.5 -79.5t-82 -53.5t-99 -19.5
q-51 0 -93.5 17.5t-73.5 48.5t-48.5 73t-17.5 90q0 52 20.5 98t55.5 80t81.5 53.5t99.5 19.5q51 0 93.5 -17.5t73.5 -48.5t48.5 -73t17.5 -90zM183 571q1 22 8.5 42t20.5 35t31 23.5t41 8.5q19 0 37 -7t35 -15.5t33 -15.5t31 -7q17 0 25.5 11.5t12.5 33.5l65 -21
q-1 -22 -8.5 -42t-20.5 -35t-31.5 -23.5t-40.5 -8.5q-19 0 -37 7t-35 15.5t-33 15.5t-31 7q-17 0 -25.5 -11.5t-12.5 -33.5z" />
    <glyph glyph-name="odieresis" unicode="&#xf6;" horiz-adv-x="584" 
d="M442 241q0 30 -10 55.5t-28.5 44t-44 29t-55.5 10.5q-34 0 -63.5 -13t-51.5 -34.5t-34.5 -51t-12.5 -62.5q0 -30 10 -55.5t28.5 -44t44 -29t55.5 -10.5q34 0 63.5 13t51.5 34.5t34.5 51t12.5 62.5zM537 241q0 -53 -20.5 -98.5t-55.5 -79.5t-82 -53.5t-99 -19.5
q-51 0 -93.5 17.5t-73.5 48.5t-48.5 73t-17.5 90q0 52 20.5 98t55.5 80t81.5 53.5t99.5 19.5q51 0 93.5 -17.5t73.5 -48.5t48.5 -73t17.5 -90zM199 607q0 26 18 44.5t44 18.5t44.5 -18.5t18.5 -44.5t-18.5 -44t-44.5 -18t-44 18t-18 44zM384 607q0 26 18 44.5t44 18.5
t44.5 -18.5t18.5 -44.5t-18.5 -44t-44.5 -18t-44 18t-18 44z" />
    <glyph glyph-name="divide" unicode="&#xf7;" horiz-adv-x="550" 
d="M51 210l16 90h430l-16 -90h-430zM176 95q0 29 20.5 49.5t49.5 20.5t49.5 -20.5t20.5 -49.5t-20.5 -49.5t-49.5 -20.5t-49.5 20.5t-20.5 49.5zM233 415q0 29 20.5 49.5t49.5 20.5t49.5 -20.5t20.5 -49.5t-20.5 -49.5t-49.5 -20.5t-49.5 20.5t-20.5 49.5z" />
    <glyph glyph-name="oslash" unicode="&#xf8;" horiz-adv-x="584" 
d="M11 -10l81 89q-45 59 -45 140q0 52 20.5 98t55.5 80t81.5 53.5t99.5 19.5q34 0 65 -8.5t57 -23.5l29 32h119l-83 -89q22 -29 34 -64.5t12 -75.5q0 -53 -20.5 -98.5t-55.5 -79.5t-82 -53.5t-99 -19.5q-68 0 -122 31l-28 -31h-119zM442 241q0 38 -17 69l-203 -219
q13 -6 27.5 -8.5t30.5 -2.5q34 0 63.5 13t51.5 34.5t34.5 51t12.5 62.5zM142 219q0 -37 16 -69l203 219q-27 11 -57 11q-34 0 -63.5 -13t-51.5 -34.5t-34.5 -51t-12.5 -62.5z" />
    <glyph glyph-name="ugrave" unicode="&#xf9;" 
d="M107 53q-25 27 -37.5 61.5t-12.5 69.5q0 16 2 38.5t6 43.5l34 194h96l-34 -194q-4 -20 -6 -42.5t-2 -38.5q0 -51 31 -78t75 -27q40 0 77 20t66 55l53 305h96l-81 -460h-91l8 40q-28 -23 -62.5 -36.5t-74.5 -13.5t-77 16t-66 47zM305 540l-105 150h105l65 -150h-65z" />
    <glyph glyph-name="uacute" unicode="&#xfa;" 
d="M107 53q-25 27 -37.5 61.5t-12.5 69.5q0 16 2 38.5t6 43.5l34 194h96l-34 -194q-4 -20 -6 -42.5t-2 -38.5q0 -51 31 -78t75 -27q40 0 77 20t66 55l53 305h96l-81 -460h-91l8 40q-28 -23 -62.5 -36.5t-74.5 -13.5t-77 16t-66 47zM287 540l65 150h105l-105 -150h-65z" />
    <glyph glyph-name="ucircumflex" unicode="&#xfb;" 
d="M107 53q-25 27 -37.5 61.5t-12.5 69.5q0 16 2 38.5t6 43.5l34 194h96l-34 -194q-4 -20 -6 -42.5t-2 -38.5q0 -51 31 -78t75 -27q40 0 77 20t66 55l53 305h96l-81 -460h-91l8 40q-28 -23 -62.5 -36.5t-74.5 -13.5t-77 16t-66 47zM185 540l122 150h110l68 -150h-65l-58 88
l-112 -88h-65z" />
    <glyph glyph-name="udieresis" unicode="&#xfc;" 
d="M107 53q-25 27 -37.5 61.5t-12.5 69.5q0 16 2 38.5t6 43.5l34 194h96l-34 -194q-4 -20 -6 -42.5t-2 -38.5q0 -51 31 -78t75 -27q40 0 77 20t66 55l53 305h96l-81 -460h-91l8 40q-28 -23 -62.5 -36.5t-74.5 -13.5t-77 16t-66 47zM197 607q0 26 18 44.5t44 18.5t44.5 -18.5
t18.5 -44.5t-18.5 -44t-44.5 -18t-44 18t-18 44zM382 607q0 26 18 44.5t44 18.5t44.5 -18.5t18.5 -44.5t-18.5 -44t-44.5 -18t-44 18t-18 44z" />
    <glyph glyph-name="yacute" unicode="&#xfd;" horiz-adv-x="513" 
d="M533 460l-429 -700h-109l177 289l-114 411h98l82 -303l186 303h109zM267 540l65 150h105l-105 -150h-65z" />
    <glyph glyph-name="thorn" unicode="&#xfe;" horiz-adv-x="596" 
d="M258 710l-48 -275q23 16 54.5 25.5t63.5 9.5q40 0 79 -14t71 -43q33 -30 52 -72t19 -91q0 -35 -9 -69t-26.5 -65t-43.5 -56.5t-60 -42.5q-26 -13 -55.5 -20t-60.5 -7q-29 0 -52.5 5.5t-42.5 13.5t-33.5 17.5t-24.5 17.5l-50 -284h-96l167 950h96zM158 135
q22 -26 56 -40.5t70 -14.5q34 0 64.5 12t54 34t37.5 52.5t14 66.5q0 30 -10.5 55t-29 43t-44 27.5t-55.5 9.5q-33 0 -67.5 -15.5t-57.5 -39.5z" />
    <glyph glyph-name="ydieresis" unicode="&#xff;" horiz-adv-x="513" 
d="M533 460l-429 -700h-109l177 289l-114 411h98l82 -303l186 303h109zM161 607q0 26 18 44.5t44 18.5t44.5 -18.5t18.5 -44.5t-18.5 -44t-44.5 -18t-44 18t-18 44zM346 607q0 26 18 44.5t44 18.5t44.5 -18.5t18.5 -44.5t-18.5 -44t-44.5 -18t-44 18t-18 44z" />
    <glyph glyph-name="dotlessi" unicode="&#x131;" horiz-adv-x="253" 
d="M214 460l-81 -460h-96l81 460h96z" />
    <glyph glyph-name="Lslash" unicode="&#x141;" horiz-adv-x="516" 
d="M8 353l111 57l51 290h99l-42 -233l157 81l-21 -117l-156 -81l-45 -255h312l-17 -95h-410l51 294l-111 -58z" />
    <glyph glyph-name="lslash" unicode="&#x142;" horiz-adv-x="253" 
d="M133 0h-96l52 296l-111 -58l20 112l111 58l53 302h96l-43 -246l111 58l-20 -112l-111 -58z" />
    <glyph glyph-name="OE" unicode="&#x152;" horiz-adv-x="1110" 
d="M1027 425l-17 -95h-231l-42 -235h312l-17 -95h-410l13 73q-51 -41 -109.5 -62t-120.5 -21q-71 0 -133 24.5t-110 72.5q-47 48 -71 110.5t-24 132.5q0 75 30 144t83 123q54 55 123.5 84t141.5 29q71 0 132 -24.5t109 -72.5q10 -11 19 -22t17 -23l23 132h400l-17 -95h-301
l-32 -180h232zM406 85q54 0 103 22.5t90 62.5q40 40 62 92.5t22 106.5q0 51 -16.5 96.5t-50.5 80.5t-78.5 52t-93.5 17q-54 0 -103 -22.5t-90 -62.5q-40 -40 -62 -92.5t-22 -106.5q0 -51 16.5 -96.5t50.5 -80.5t78.5 -52t93.5 -17z" />
    <glyph glyph-name="oe" unicode="&#x153;" horiz-adv-x="932" 
d="M686 470q47 0 85 -16.5t64.5 -46t40.5 -69.5t14 -87q0 -9 -1 -21.5t-3 -19.5h-349q1 -29 11 -54t27.5 -43.5t42 -29t56.5 -10.5q34 0 64 13t58 36l57 -61q-34 -30 -74.5 -50.5t-103.5 -20.5q-39 0 -78 11.5t-72 37.5q-28 21 -45 49q-35 -45 -86.5 -71.5t-113.5 -26.5
q-51 0 -93.5 17.5t-73.5 48.5t-48.5 73t-17.5 90q0 52 20.5 98t55.5 80t81.5 53.5t99.5 19.5q63 0 112 -27t78 -72q32 45 81 72t111 27zM442 241q0 30 -10 55.5t-28.5 44t-44 29t-55.5 10.5q-34 0 -63.5 -13t-51.5 -34.5t-34.5 -51t-12.5 -62.5q0 -30 10 -55.5t28.5 -44
t44 -29t55.5 -10.5q34 0 63.5 13t51.5 34.5t34.5 51t12.5 62.5zM683 387q-46 0 -81.5 -26.5t-51.5 -70.5h245q-7 46 -35.5 71.5t-76.5 25.5z" />
    <glyph glyph-name="Scaron" unicode="&#x160;" horiz-adv-x="520" 
d="M76 170q32 -38 75.5 -61.5t95.5 -23.5q25 0 48.5 8t41.5 22.5t29 35.5t11 47q0 37 -20 62t-49.5 44t-64.5 36.5t-64.5 40.5t-49.5 54.5t-20 79.5q0 43 19 79t50.5 62t72.5 40t85 14q54 0 105.5 -18.5t93.5 -59.5l-63 -73q-26 26 -61 41t-73 15q-20 0 -43 -5t-42 -16.5
t-31.5 -29.5t-12.5 -43q0 -29 20 -49t49.5 -38t64.5 -37t64.5 -45t49.5 -63t20 -91q0 -45 -18.5 -83t-50.5 -65.5t-74 -43.5t-89 -16q-33 0 -66.5 7t-65 21.5t-59.5 35.5t-49 50zM516 900l-122 -150h-110l-68 150h65l58 -88l112 88h65z" />
    <glyph glyph-name="scaron" unicode="&#x161;" horiz-adv-x="435" 
d="M67 124q26 -21 58 -36t70 -15q34 0 57 16t23 43q0 23 -23 37t-55 28q-21 9 -43 19t-40 24.5t-29 34t-11 46.5q0 34 15 61.5t40 47t57 30t65 10.5q53 0 89.5 -15t64.5 -35l-51 -66q-20 14 -46 23.5t-54 9.5q-12 0 -27 -2.5t-27.5 -9.5t-21.5 -18t-9 -27q0 -11 7 -19
t18.5 -15t26 -13.5t30.5 -13.5q21 -9 42 -20.5t38.5 -27t28 -36.5t10.5 -49q0 -33 -14 -59.5t-37.5 -46t-55 -30t-67.5 -10.5q-51 0 -96.5 15.5t-84.5 48.5zM440 690l-122 -150h-110l-68 150h65l58 -88l112 88h65z" />
    <glyph glyph-name="Ydieresis" unicode="&#x178;" horiz-adv-x="554" 
d="M168 700l129 -285l231 285h124l-321 -395l-53 -305h-99l56 320l-173 380h106zM215 817q0 26 18 44.5t44 18.5t44.5 -18.5t18.5 -44.5t-18.5 -44t-44.5 -18t-44 18t-18 44zM400 817q0 26 18 44.5t44 18.5t44.5 -18.5t18.5 -44.5t-18.5 -44t-44.5 -18t-44 18t-18 44z" />
    <glyph glyph-name="Zcaron" unicode="&#x17d;" horiz-adv-x="584" 
d="M143 700h471l-12 -65l-452 -540h378l-17 -95h-521l11 65l452 540h-327zM565 900l-122 -150h-110l-68 150h65l58 -88l112 88h65z" />
    <glyph glyph-name="zcaron" unicode="&#x17e;" horiz-adv-x="485" 
d="M314 375h-233l15 85h374l-10 -60l-304 -315h269l-15 -85h-410l10 60zM485 690l-122 -150h-110l-68 150h65l58 -88l112 88h65z" />
    <glyph glyph-name="longs" unicode="&#x17f;" horiz-adv-x="387" 
d="M133 0h-96l95 540q15 85 67.5 132.5t140.5 47.5q24 0 50 -5.5t52 -17.5l-34 -84q-16 8 -33.5 12.5t-36.5 4.5q-51 0 -77.5 -28.5t-35.5 -78.5z" />
    <glyph glyph-name="florin" unicode="&#x192;" horiz-adv-x="480" 
d="M156 -44q8 28 14 69t10.5 88.5t8 99t8.5 102.5h-157l15 85h150q4 34 8.5 64t11.5 55q9 36 23.5 69t37.5 58q28 31 66.5 47.5t87.5 16.5q18 0 37 -3t38 -11l-26 -83q-11 3 -22.5 5t-26.5 2q-52 0 -83 -35q-25 -30 -39 -81q-6 -20 -10.5 -46.5t-8.5 -57.5h172l-15 -85h-166
q-4 -49 -8 -101t-8.5 -101.5t-10 -93.5t-14.5 -78q-9 -36 -23.5 -69t-37.5 -58q-28 -31 -66.5 -47.5t-87.5 -16.5q-18 0 -37 3t-38 11l26 83q11 -3 22.5 -5t26.5 -2q52 0 83 35q25 30 39 81z" />
    <glyph glyph-name="circumflex" unicode="&#x2c6;" horiz-adv-x="440" 
d="M70 540l122 150h110l68 -150h-65l-58 88l-112 -88h-65z" />
    <glyph glyph-name="caron" unicode="&#x2c7;" horiz-adv-x="440" 
d="M370 690l-122 -150h-110l-68 150h65l58 -88l112 88h65z" />
    <glyph glyph-name="uni02C9" unicode="&#x2c9;" horiz-adv-x="500" 
d="M370 650v-85h-300v85h300z" />
    <glyph glyph-name="breve" unicode="&#x2d8;" horiz-adv-x="420" 
d="M350 690q0 -29 -11 -54.5t-30 -44.5t-44.5 -30t-54.5 -11t-54.5 11t-44.5 30t-30 44.5t-11 54.5h85q0 -23 16 -39t39 -16t39 16t16 39h85z" />
    <glyph glyph-name="dotaccent" unicode="&#x2d9;" horiz-adv-x="265" 
d="M70 627q0 26 18 44.5t44 18.5t44.5 -18.5t18.5 -44.5t-18.5 -44t-44.5 -18t-44 18t-18 44z" />
    <glyph glyph-name="ring" unicode="&#x2da;" horiz-adv-x="340" 
d="M70 620q0 42 29 71t71 29t71 -29t29 -71t-29 -71t-71 -29t-71 29t-29 71zM130 620q0 -17 11.5 -28.5t28.5 -11.5t28.5 11.5t11.5 28.5t-11.5 28.5t-28.5 11.5t-28.5 -11.5t-11.5 -28.5z" />
    <glyph glyph-name="ogonek" unicode="&#x2db;" horiz-adv-x="320" 
d="M203 10q-5 -7 -11.5 -18t-12.5 -24t-10 -27t-4 -27q0 -22 13.5 -33t33.5 -11q8 0 13.5 1t9.5 3l15 -85q-5 -2 -19 -5.5t-36 -3.5q-27 0 -50 9.5t-39.5 25.5t-26 38t-9.5 47q0 38 13.5 67t24.5 43h95z" />
    <glyph glyph-name="tilde" unicode="&#x2dc;" horiz-adv-x="480" 
d="M70 571q1 22 8.5 42t20.5 35t31 23.5t41 8.5q19 0 37 -7t35 -15.5t33 -15.5t31 -7q17 0 25.5 11.5t12.5 33.5l65 -21q-1 -22 -8.5 -42t-20.5 -35t-31.5 -23.5t-40.5 -8.5q-19 0 -37 7t-35 15.5t-33 15.5t-31 7q-17 0 -25.5 -11.5t-12.5 -33.5z" />
    <glyph glyph-name="hungarumlaut" unicode="&#x2dd;" horiz-adv-x="495" 
d="M70 540l65 150h105l-105 -150h-65zM255 540l65 150h105l-105 -150h-65z" />
    <glyph glyph-name="uni0394" unicode="&#x394;" horiz-adv-x="570" 
d="M436 700l134 -640l-10 -60h-560l10 60l361 640h65zM131 90h340l-92 440z" />
    <glyph glyph-name="uni03A9" unicode="&#x3a9;" horiz-adv-x="764" 
d="M241 0h-249l16 90h110q-31 51 -47 109.5t-16 115.5q0 78 28.5 151.5t84.5 130.5q54 55 123.5 84t141.5 29q71 0 134 -24.5t110 -72.5q48 -50 71.5 -115t23.5 -143q0 -71 -30 -142t-80 -123h75l-16 -90h-248l10 60q37 16 72 45.5t62 68.5t43.5 86t16.5 99q0 54 -16 103
t-53 87q-35 35 -80 53t-95 18q-55 0 -105 -23t-92 -64q-44 -44 -65 -100.5t-21 -116.5q0 -72 24 -131t77 -125z" />
    <glyph glyph-name="uni03BC" unicode="&#x3bc;" horiz-adv-x="609" 
d="M292 -10q-78 0 -129 54l-50 -284h-96l123 700h96l-34 -194q-4 -20 -6 -42.5t-2 -38.5q0 -51 31 -78t75 -27q40 0 77 20t66 55l53 305h96l-81 -460h-91l8 40q-28 -23 -62.5 -36.5t-73.5 -13.5z" />
    <glyph glyph-name="pi" unicode="&#x3c0;" horiz-adv-x="551" 
d="M378 -10q-32 23 -47.5 50t-15.5 63q0 18 3 38t6 35l35 194h-98l-66 -370h-96l65 364q-29 -5 -53 -22.5t-41 -37.5l-75 49q18 26 47.5 50.5t71.5 40.5t115 16h342l-16 -90h-100l-39 -217q-2 -13 -3.5 -23.5t-1.5 -19.5q0 -13 4.5 -23.5t16.5 -18.5z" />
    <glyph glyph-name="endash" unicode="&#x2013;" horiz-adv-x="483" 
d="M472 295l-14 -80h-440l14 80h440z" />
    <glyph glyph-name="emdash" unicode="&#x2014;" horiz-adv-x="783" 
d="M772 295l-14 -80h-740l14 80h740z" />
    <glyph glyph-name="quoteleft" unicode="&#x2018;" horiz-adv-x="308" 
d="M97 455l160 255h69l-115 -255h-114z" />
    <glyph glyph-name="quoteright" unicode="&#x2019;" horiz-adv-x="308" 
d="M331 710l-160 -255h-69l115 255h114z" />
    <glyph glyph-name="quotesinglbase" unicode="&#x201a;" horiz-adv-x="328" 
d="M251 115l-160 -255h-69l115 255h114z" />
    <glyph glyph-name="quotedblleft" unicode="&#x201c;" horiz-adv-x="518" 
d="M307 455l160 255h69l-115 -255h-114zM97 455l160 255h69l-115 -255h-114z" />
    <glyph glyph-name="quotedblright" unicode="&#x201d;" horiz-adv-x="518" 
d="M331 710l-160 -255h-69l115 255h114zM541 710l-160 -255h-69l115 255h114z" />
    <glyph glyph-name="quotedblbase" unicode="&#x201e;" horiz-adv-x="538" 
d="M251 115l-160 -255h-69l115 255h114zM461 115l-160 -255h-69l115 255h114z" />
    <glyph glyph-name="dagger" unicode="&#x2020;" horiz-adv-x="520" 
d="M246 450l44 250h96l-44 -250h165l-16 -90h-165l-99 -560h-96l99 560h-165l16 90h165z" />
    <glyph glyph-name="daggerdbl" unicode="&#x2021;" horiz-adv-x="520" 
d="M246 450l44 250h96l-44 -250h165l-16 -90h-165l-25 -140h165l-16 -90h-165l-58 -330h-96l58 330h-165l16 90h166l24 140h-165l16 90h165z" />
    <glyph glyph-name="bullet" unicode="&#x2022;" horiz-adv-x="560" 
d="M80 230q0 41 16 77.5t43 63.5t63.5 43t77.5 16t77.5 -16t63.5 -43t43 -63.5t16 -77.5t-16 -77.5t-43 -63.5t-63.5 -43t-77.5 -16t-77.5 16t-63.5 43t-43 63.5t-16 77.5z" />
    <glyph glyph-name="ellipsis" unicode="&#x2026;" horiz-adv-x="930" 
d="M75 60q0 29 20.5 49.5t49.5 20.5t49.5 -20.5t20.5 -49.5t-20.5 -49.5t-49.5 -20.5t-49.5 20.5t-20.5 49.5zM370 60q0 29 20.5 49.5t49.5 20.5t49.5 -20.5t20.5 -49.5t-20.5 -49.5t-49.5 -20.5t-49.5 20.5t-20.5 49.5zM665 60q0 29 20.5 49.5t49.5 20.5t49.5 -20.5
t20.5 -49.5t-20.5 -49.5t-49.5 -20.5t-49.5 20.5t-20.5 49.5z" />
    <glyph glyph-name="perthousand" unicode="&#x2030;" horiz-adv-x="1224" 
d="M984 -10q-45 0 -79.5 18.5t-56.5 50.5q-24 -32 -60.5 -50.5t-82.5 -18.5q-37 0 -69 13.5t-56 36.5t-37.5 54.5t-13.5 67.5q0 43 14.5 79.5t40.5 62.5t61.5 41t76.5 15q44 0 78.5 -18.5t56.5 -50.5q24 32 60.5 50.5t83.5 18.5q37 0 69 -13.5t56 -36.5t37.5 -54.5
t13.5 -67.5q0 -43 -14.5 -79.5t-40.5 -62.5t-61.5 -41t-76.5 -15zM253 340q-37 0 -69 13.5t-56 36.5t-37.5 54.5t-13.5 67.5q0 43 14.5 79.5t40.5 62.5t61.5 41t76.5 15q37 0 69 -13.5t56 -36.5t37.5 -54.5t13.5 -67.5q0 -43 -14.5 -79.5t-40.5 -62.5t-61.5 -41t-76.5 -15z
M898 167q0 -40 24 -66t63 -26q21 0 39.5 8t32.5 22.5t22 34t8 43.5q0 40 -24 66t-63 26q-21 0 -39.5 -8t-32.5 -22.5t-22 -34t-8 -43.5zM167 517q0 -40 24 -66t63 -26q21 0 39.5 8t32.5 22.5t22 34t8 43.5q0 40 -24 66t-63 26q-21 0 -39.5 -8t-32.5 -22.5t-22 -34t-8 -43.5z
M619 167q0 -40 24 -66t63 -26q21 0 39.5 8t32.5 22.5t22 34t8 43.5q0 40 -24 66t-63 26q-21 0 -39.5 -8t-32.5 -22.5t-22 -34t-8 -43.5zM175 0l532 700h93l-532 -700h-93z" />
    <glyph glyph-name="guilsinglleft" unicode="&#x2039;" horiz-adv-x="371" 
d="M158 227l113 -177h-106l-103 165l8 50l161 165h125z" />
    <glyph glyph-name="guilsinglright" unicode="&#x203a;" horiz-adv-x="371" 
d="M213 253l-113 177h106l103 -165l-8 -50l-161 -165h-125z" />
    <glyph glyph-name="fraction" unicode="&#x2044;" horiz-adv-x="635" 
d="M5 0l532 700h93l-532 -700h-93z" />
    <glyph glyph-name="uni2070" unicode="&#x2070;" horiz-adv-x="327" 
d="M188 400q22 0 38 17.5t26.5 44t15 57.5t4.5 57q0 29 -10 46.5t-33 17.5q-22 0 -38 -17.5t-26 -44t-15 -57.5t-5 -57q0 -28 10 -46t33 -18zM188 330q-50 0 -84 34t-34 100q0 43 8.5 87t27.5 79t49 57.5t74 22.5q50 0 84 -34t34 -100q0 -43 -8.5 -87t-27.5 -79t-49.5 -57.5
t-73.5 -22.5z" />
    <glyph glyph-name="uni2074" unicode="&#x2074;" horiz-adv-x="321" 
d="M341 700l-40 -219h50l-11 -64h-49l-14 -77h-76l14 77h-175l8 45l248 238h45zM226 481l14 77l-77 -77h63z" />
    <glyph glyph-name="uni2075" unicode="&#x2075;" horiz-adv-x="277" 
d="M129 700h186l-13 -70h-117l-15 -50q25 0 47 -9.5t38 -26t25.5 -38t9.5 -46.5q0 -27 -11 -51t-29.5 -41.5t-44 -27.5t-54.5 -10q-35 0 -65.5 16t-47.5 42l60 39q8 -11 21.5 -19t33.5 -8q28 0 45 18.5t17 41.5q0 24 -17 39t-41 15q-14 0 -23.5 -4.5t-20.5 -11.5l-44 13z
" />
    <glyph glyph-name="uni2076" unicode="&#x2076;" horiz-adv-x="305" 
d="M211 585q24 -3 44.5 -14t35.5 -27.5t24 -37.5t9 -46q0 -29 -11.5 -53t-30.5 -41t-43.5 -26.5t-50.5 -9.5q-30 0 -54.5 9.5t-42.5 26.5t-27.5 39.5t-9.5 48.5q0 25 10.5 48.5t30.5 49.5l113 148h89zM126 455q0 -26 18 -40.5t43 -14.5q27 0 44.5 17.5t17.5 41.5
q0 26 -17 42t-45 16q-9 0 -19.5 -2.5t-20.5 -6.5q-11 -16 -16 -27t-5 -26z" />
    <glyph glyph-name="uni2077" unicode="&#x2077;" horiz-adv-x="271" 
d="M93 700h243l-8 -41l-204 -319h-84l185 290h-144z" />
    <glyph glyph-name="uni2078" unicode="&#x2078;" horiz-adv-x="302" 
d="M321 459q0 -26 -10.5 -49.5t-29 -41t-43 -28t-52.5 -10.5t-51 9.5t-39.5 26t-25.5 38.5t-9 46q0 34 17 59.5t46 41.5q-16 19 -16 50q0 22 8.5 42t23.5 35t35.5 23.5t44.5 8.5q25 0 45 -9t34 -23.5t21.5 -33t7.5 -38.5q0 -24 -10 -42.5t-27 -31.5q30 -30 30 -73zM246 459
q0 21 -14.5 35.5t-36.5 14.5q-25 0 -42 -18t-17 -41q0 -22 14.5 -36t36.5 -14q24 0 41.5 18t17.5 41zM183 601q0 -14 10 -23.5t24 -9.5q17 0 26.5 11.5t9.5 26.5t-9.5 24.5t-24.5 9.5q-16 0 -26 -11.5t-10 -27.5z" />
    <glyph glyph-name="uni2079" unicode="&#x2079;" horiz-adv-x="305" 
d="M182 455q-24 3 -44.5 14t-35.5 27.5t-24 37.5t-9 46q0 29 11.5 53t30.5 41t43.5 26.5t50.5 9.5q30 0 54.5 -9.5t42.5 -26.5t27.5 -39.5t9.5 -48.5q0 -25 -10.5 -48.5t-30.5 -49.5l-113 -148h-89zM267 585q0 26 -18 40.5t-43 14.5q-27 0 -44.5 -17.5t-17.5 -41.5
q0 -26 17 -42t45 -16q9 0 19.5 2.5t20.5 6.5q11 16 16 27t5 26z" />
    <glyph glyph-name="uni2080" unicode="&#x2080;" horiz-adv-x="327" 
d="M128 60q22 0 38 17.5t26.5 44t15 57.5t4.5 57q0 29 -10 46.5t-33 17.5q-22 0 -38 -17.5t-26 -44t-15 -57.5t-5 -57q0 -28 10 -46t33 -18zM128 -10q-50 0 -84 34t-34 100q0 43 8.5 87t27.5 79t49 57.5t74 22.5q50 0 84 -34t34 -100q0 -43 -8.5 -87t-27.5 -79t-49.5 -57.5
t-73.5 -22.5z" />
    <glyph glyph-name="uni2081" unicode="&#x2081;" horiz-adv-x="228" 
d="M29 304l119 56h45l-64 -360h-76l47 261l-85 -36z" />
    <glyph glyph-name="uni2082" unicode="&#x2082;" horiz-adv-x="285" 
d="M19 284q14 39 46.5 62.5t75.5 23.5q22 0 43 -8.5t36.5 -23t25 -35t9.5 -44.5q0 -32 -14.5 -58.5t-38.5 -49.5l-84 -81h111l-12 -70h-242l7 40l149 146q26 26 37.5 41.5t11.5 31.5q0 19 -13 30t-29 11q-20 0 -31.5 -12t-16.5 -29z" />
    <glyph glyph-name="uni2083" unicode="&#x2083;" horiz-adv-x="280" 
d="M171 227q30 -13 47 -42.5t17 -64.5q0 -29 -11 -52.5t-29.5 -41t-44 -27t-54.5 -9.5q-39 0 -72.5 19t-48.5 52l63 37q8 -15 23 -26.5t35 -11.5q29 0 46.5 18t17.5 42q0 25 -17 41t-42 16q-16 0 -26 -3t-15 -5l7 40l75 81h-122l13 70h227l-7 -41z" />
    <glyph glyph-name="uni2084" unicode="&#x2084;" horiz-adv-x="321" 
d="M281 360l-40 -219h50l-11 -64h-49l-14 -77h-76l14 77h-175l8 45l248 238h45zM166 141l14 77l-77 -77h63z" />
    <glyph glyph-name="uni2085" unicode="&#x2085;" horiz-adv-x="277" 
d="M71 360h186l-13 -70h-117l-15 -50q25 0 47 -9.5t38 -26t25.5 -38t9.5 -46.5q0 -27 -11 -51t-29.5 -41.5t-44 -27.5t-54.5 -10q-35 0 -65.5 16t-47.5 42l60 39q8 -11 21.5 -19t33.5 -8q28 0 45 18.5t17 41.5q0 24 -17 39t-41 15q-14 0 -23.5 -4.5t-20.5 -11.5l-44 13z" />
    <glyph glyph-name="uni2086" unicode="&#x2086;" horiz-adv-x="305" 
d="M152 245q24 -3 44.5 -14t35.5 -27.5t24 -37.5t9 -46q0 -29 -11.5 -53t-30.5 -41t-43.5 -26.5t-50.5 -9.5q-30 0 -54.5 9.5t-42.5 26.5t-27.5 39.5t-9.5 48.5q0 25 10.5 48.5t30.5 49.5l113 148h89zM67 115q0 -26 18 -40.5t43 -14.5q27 0 44.5 17.5t17.5 41.5q0 26 -17 42
t-45 16q-9 0 -19.5 -2.5t-20.5 -6.5q-11 -16 -16 -27t-5 -26z" />
    <glyph glyph-name="uni2087" unicode="&#x2087;" horiz-adv-x="271" 
d="M33 360h243l-8 -41l-204 -319h-84l185 290h-144z" />
    <glyph glyph-name="uni2088" unicode="&#x2088;" horiz-adv-x="302" 
d="M260 119q0 -26 -10.5 -49.5t-29 -41t-43 -28t-52.5 -10.5t-51 9.5t-39.5 26t-25.5 38.5t-9 46q0 34 17 59.5t46 41.5q-16 19 -16 50q0 22 8.5 42t23.5 35t35.5 23.5t44.5 8.5q25 0 45 -9t34 -23.5t21.5 -33t7.5 -38.5q0 -24 -10 -42.5t-27 -31.5q30 -30 30 -73zM185 119
q0 21 -14.5 35.5t-36.5 14.5q-25 0 -42 -18t-17 -41q0 -22 14.5 -36t36.5 -14q24 0 41.5 18t17.5 41zM122 261q0 -14 10 -23.5t24 -9.5q17 0 26.5 11.5t9.5 26.5t-9.5 24.5t-24.5 9.5q-16 0 -26 -11.5t-10 -27.5z" />
    <glyph glyph-name="uni2089" unicode="&#x2089;" horiz-adv-x="305" 
d="M123 115q-24 3 -44.5 14t-35.5 27.5t-24 37.5t-9 46q0 29 11.5 53t30.5 41t43.5 26.5t50.5 9.5q30 0 54.5 -9.5t42.5 -26.5t27.5 -39.5t9.5 -48.5q0 -25 -10.5 -48.5t-30.5 -49.5l-113 -148h-89zM208 245q0 26 -18 40.5t-43 14.5q-27 0 -44.5 -17.5t-17.5 -41.5
q0 -26 17 -42t45 -16q9 0 19.5 2.5t20.5 6.5q11 16 16 27t5 26z" />
    <glyph glyph-name="Euro" unicode="&#x20ac;" 
d="M85 470q18 52 48 96t70.5 76t90 50t105.5 18q69 0 124.5 -27.5t101.5 -85.5l-69 -67q-35 44 -72 64.5t-85 20.5q-35 0 -66.5 -11t-57.5 -30t-47 -46t-36 -58h264l-15 -85h-275q-2 -14 -3 -27t-1 -27v-16h266l-15 -85h-236q22 -66 70 -105.5t119 -39.5q27 0 50 4.5t44 15
t41 27t42 39.5l68 -67q-54 -64 -115 -89t-130 -25q-56 0 -103.5 17.5t-85 49t-64 75.5t-39.5 98h-99l15 85h72v16q0 27 3 54h-62l15 85h67z" />
    <glyph glyph-name="trademark" unicode="&#x2122;" horiz-adv-x="925" 
d="M523 700l143 -216l144 216h45v-383h-72v222l-95 -141h-44l-94 141v-222h-73v383h46zM422 700v-68h-100v-315h-72v315h-100v68h272z" />
    <glyph glyph-name="Omega" unicode="&#x2126;" horiz-adv-x="764" 
d="M231 0h-249l16 90h110q-31 51 -47 109.5t-16 115.5q0 78 28.5 151.5t84.5 130.5q54 55 123.5 84t141.5 29q71 0 134 -24.5t110 -72.5q48 -50 71.5 -115t23.5 -143q0 -71 -30 -142t-80 -123h75l-16 -90h-248l10 60q37 16 72 45.5t62 68.5t43.5 86t16.5 99q0 54 -16 103
t-53 87q-35 35 -80 53t-95 18q-55 0 -105 -23t-92 -64q-44 -44 -65 -100.5t-21 -116.5q0 -72 24 -131t77 -125z" />
    <glyph glyph-name="arrowleft" unicode="&#x2190;" horiz-adv-x="723" 
d="M430 481l-219 -186h461l-14 -80h-481l154 -186h-103l-167 201l8 50l237 201h124z" />
    <glyph glyph-name="arrowright" unicode="&#x2192;" horiz-adv-x="723" 
d="M300 29l219 186h-461l14 80h481l-154 186h103l167 -201l-8 -50l-237 -201h-124z" />
    <glyph glyph-name="uni2196" unicode="&#x2196;" horiz-adv-x="584" 
d="M46 151l49 277l38 32h278l66 -80h-259l272 -329l-62 -51l-270 328l-46 -258z" />
    <glyph glyph-name="uni2197" unicode="&#x2197;" horiz-adv-x="584" 
d="M411 70l44 247l-372 -317l-52 61l374 319h-248l94 80h272l33 -38l-49 -270z" />
    <glyph glyph-name="uni2198" unicode="&#x2198;" horiz-adv-x="584" 
d="M536 309l-49 -277l-38 -32h-278l-66 80h259l-272 329l62 51l270 -328l46 258z" />
    <glyph glyph-name="uni2199" unicode="&#x2199;" horiz-adv-x="584" 
d="M170 390l-44 -247l372 317l52 -61l-374 -319h248l-94 -80h-272l-33 38l49 270z" />
    <glyph glyph-name="partialdiff" unicode="&#x2202;" horiz-adv-x="584" 
d="M304 380q-34 0 -63.5 -13t-51.5 -34.5t-34.5 -51t-12.5 -62.5q0 -31 11 -56.5t30.5 -44t45 -28.5t55.5 -10q33 0 62 13t50 35t33.5 51.5t12.5 61.5q0 28 -8 53.5t-22 53.5q-21 15 -47 23.5t-61 8.5zM262 710h99l127 -304q6 -14 14.5 -33t16 -41t13 -46t5.5 -48
q0 -51 -20.5 -96t-55 -79t-80.5 -53.5t-97 -19.5q-50 0 -93.5 17.5t-75.5 48t-50 72.5t-18 91q0 52 20.5 98t55.5 80t81.5 53.5t99.5 19.5q33 0 60 -7z" />
    <glyph glyph-name="Delta" unicode="&#x2206;" horiz-adv-x="570" 
d="M401 700l134 -640l-10 -60h-560l10 60l361 640h65zM96 90h340l-92 440z" />
    <glyph glyph-name="product" unicode="&#x220f;" horiz-adv-x="585" 
d="M75 0l108 610h-101l16 90h550l-16 -90h-99l-108 -610h-96l108 610h-158l-108 -610h-96z" />
    <glyph glyph-name="summation" unicode="&#x2211;" 
d="M113 700h510l-35 -200h-91l20 110h-275l181 -220l-11 -60l-258 -240h281l19 110h91l-35 -200h-530l11 60l332 310l-221 270z" />
    <glyph glyph-name="minus" unicode="&#x2212;" horiz-adv-x="550" 
d="M51 210l16 90h430l-16 -90h-430z" />
    <glyph glyph-name="uni2215" unicode="&#x2215;" horiz-adv-x="635" 
d="M5 0l532 700h93l-532 -700h-93z" />
    <glyph glyph-name="uni2219" unicode="&#x2219;" horiz-adv-x="500" 
d="M95 230q0 29 20.5 49.5t49.5 20.5t49.5 -20.5t20.5 -49.5t-20.5 -49.5t-49.5 -20.5t-49.5 20.5t-20.5 49.5z" />
    <glyph glyph-name="radical" unicode="&#x221a;" horiz-adv-x="568" 
d="M206 460l67 -290l282 530h103l-373 -700h-65l-87 370h-113l16 90h170z" />
    <glyph glyph-name="infinity" unicode="&#x221e;" horiz-adv-x="779" 
d="M573 474q38 0 70 -12.5t55 -36t36 -56t13 -71.5q0 -49 -16.5 -89t-44 -68.5t-65 -44.5t-79.5 -16q-32 0 -56 8.5t-43 22.5t-33 33.5t-25 40.5q-15 -21 -32 -40.5t-38.5 -33.5t-48.5 -22.5t-60 -8.5q-38 0 -70 12.5t-55 36t-36 56t-13 71.5q0 49 16.5 89t44 68.5t65 44.5
t79.5 16q33 0 57.5 -8t43.5 -22.5t32.5 -33t24.5 -39.5q15 21 32 39.5t38.5 33t48 22.5t59.5 8zM573 384q-25 0 -45 -9t-36 -24.5t-30 -36t-27 -43.5q16 -42 39.5 -71.5t67.5 -29.5q24 0 44.5 10t35 27.5t22.5 40.5t8 50q0 38 -20.5 62t-58.5 24zM237 384q-24 0 -44.5 -10
t-35 -27.5t-22.5 -40.5t-8 -50q0 -38 20.5 -62t58.5 -24q25 0 44.5 9t35.5 24t30 35.5t27 43.5q-18 42 -41.5 72t-64.5 30z" />
    <glyph glyph-name="integral" unicode="&#x222b;" horiz-adv-x="480" 
d="M146 -44q9 30 15 73.5t10.5 94.5t8.5 105.5t9 107t11 100t15 82.5q9 36 23.5 69t37.5 58q28 31 66.5 47.5t87.5 16.5q18 0 37 -3t38 -11l-26 -83q-11 3 -22.5 5t-26.5 2q-52 0 -83 -35q-25 -30 -39 -81q-9 -30 -15 -73.5t-10.5 -94.5t-8.5 -105.5t-9 -107t-11 -100
t-15 -82.5q-9 -36 -23.5 -69t-37.5 -58q-28 -31 -66.5 -47.5t-87.5 -16.5q-18 0 -37 3t-38 11l26 83q11 -3 22.5 -5t26.5 -2q52 0 83 35q25 30 39 81z" />
    <glyph glyph-name="approxequal" unicode="&#x2248;" horiz-adv-x="555" 
d="M555 386q-11 -23 -27 -45.5t-37 -40t-46.5 -28.5t-55.5 -11q-25 0 -44 6.5t-34.5 16.5t-28.5 21t-25 21t-24.5 16.5t-27.5 6.5q-29 0 -52 -24t-37 -53l-76 42q11 23 27 45.5t37 40t46.5 28.5t55.5 11q25 0 44 -6.5t34.5 -16.5t28.5 -21t25 -21t24.5 -16.5t27.5 -6.5
q29 0 52 24t37 53zM525 206q-11 -23 -27 -45.5t-37 -40t-46.5 -28.5t-55.5 -11q-25 0 -44 6.5t-34.5 16.5t-28.5 21t-25 21t-24.5 16.5t-27.5 6.5q-29 0 -52 -24t-37 -53l-76 42q11 23 27 45.5t37 40t46.5 28.5t55.5 11q25 0 44 -6.5t34.5 -16.5t28.5 -21t25 -21t24.5 -16.5
t27.5 -6.5q29 0 52 24t37 53z" />
    <glyph glyph-name="notequal" unicode="&#x2260;" horiz-adv-x="550" 
d="M364 300l-68 -90h185l-16 -90h-237l-79 -105h-113l79 105h-80l16 90h132l68 90h-184l16 90h236l79 105h113l-79 -105h81l-16 -90h-133z" />
    <glyph glyph-name="lessequal" unicode="&#x2264;" horiz-adv-x="550" 
d="M531 492l-18 -100l-262 -82l233 -83l-15 -90l-414 148l10 60zM16 10l16 90h430l-16 -90h-430z" />
    <glyph glyph-name="greaterequal" unicode="&#x2265;" horiz-adv-x="550" 
d="M39 137l18 100l262 82l-233 83l15 90l414 -148l-10 -60zM462 100l-16 -90h-430l16 90h430z" />
    <glyph glyph-name="lozenge" unicode="&#x25ca;" horiz-adv-x="525" 
d="M309 700h65l151 -320l-11 -60l-263 -320h-65l-151 320l11 60zM230 116l203 248l-103 220l-204 -248z" />
    <glyph glyph-name="uniFB00" unicode="&#xfb00;" horiz-adv-x="809" 
d="M792 623q-11 3 -21.5 5t-23.5 2q-50 0 -76 -29t-35 -78l-11 -63h160l-15 -85h-160l-66 -375h-96l66 375h-268l-66 -375h-96l66 375h-120l15 85h120l14 80q14 82 64.5 131t132.5 49q18 0 37 -2t42 -10l-27 -85q-11 3 -21.5 5t-23.5 2q-50 0 -76 -29t-35 -78l-11 -63h268
l14 80q14 82 64.5 131t132.5 49q18 0 37 -2t42 -10z" />
    <glyph glyph-name="fi" unicode="&#xfb01;" horiz-adv-x="660" 
d="M428 623q-11 3 -21.5 5t-23.5 2q-50 0 -76 -29t-35 -78l-11 -63h360l-81 -460h-96l66 375h-264l-66 -375h-96l66 375h-120l15 85h120l14 80q14 82 64.5 131t132.5 49q18 0 37 -2t42 -10zM538 627q0 26 18 44.5t44 18.5t44.5 -18.5t18.5 -44.5t-18.5 -44t-44.5 -18t-44 18
t-18 44z" />
    <glyph glyph-name="fl" unicode="&#xfb02;" horiz-adv-x="660" 
d="M428 623q-11 3 -21.5 5t-23.5 2q-50 0 -76 -29t-35 -78l-11 -63h264l44 250h96l-125 -710h-96l66 375h-264l-66 -375h-96l66 375h-120l15 85h120l14 80q14 82 64.5 131t132.5 49q18 0 37 -2t42 -10z" />
    <glyph glyph-name="uniFB03" unicode="&#xfb03;" horiz-adv-x="1024" 
d="M792 623q-11 3 -21.5 5t-23.5 2q-50 0 -76 -29t-35 -78l-11 -63h360l-81 -460h-96l66 375h-264l-66 -375h-96l66 375h-268l-66 -375h-96l66 375h-120l15 85h120l14 80q14 82 64.5 131t132.5 49q18 0 37 -2t42 -10l-27 -85q-11 3 -21.5 5t-23.5 2q-50 0 -76 -29t-35 -78
l-11 -63h268l14 80q14 82 64.5 131t132.5 49q18 0 37 -2t42 -10zM902 627q0 26 18 44.5t44 18.5t44.5 -18.5t18.5 -44.5t-18.5 -44t-44.5 -18t-44 18t-18 44z" />
    <glyph glyph-name="uniFB04" unicode="&#xfb04;" horiz-adv-x="1024" 
d="M792 623q-11 3 -21.5 5t-23.5 2q-50 0 -76 -29t-35 -78l-11 -63h264l44 250h96l-125 -710h-96l66 375h-264l-66 -375h-96l66 375h-268l-66 -375h-96l66 375h-120l15 85h120l14 80q14 82 64.5 131t132.5 49q18 0 37 -2t42 -10l-27 -85q-11 3 -21.5 5t-23.5 2
q-50 0 -76 -29t-35 -78l-11 -63h268l14 80q14 82 64.5 131t132.5 49q18 0 37 -2t42 -10z" />
    <glyph glyph-name="zero.numr" horiz-adv-x="327" 
d="M188 400q22 0 38 17.5t26.5 44t15 57.5t4.5 57q0 29 -10 46.5t-33 17.5q-22 0 -38 -17.5t-26 -44t-15 -57.5t-5 -57q0 -28 10 -46t33 -18zM188 330q-50 0 -84 34t-34 100q0 43 8.5 87t27.5 79t49 57.5t74 22.5q50 0 84 -34t34 -100q0 -43 -8.5 -87t-27.5 -79t-49.5 -57.5
t-73.5 -22.5z" />
    <glyph glyph-name="one.numr" horiz-adv-x="223" 
d="M90 644l119 56h45l-64 -360h-76l47 261l-85 -36z" />
    <glyph glyph-name="two.numr" horiz-adv-x="285" 
d="M80 634q14 39 46.5 62.5t75.5 23.5q22 0 43 -8.5t36.5 -23t25 -35t9.5 -44.5q0 -32 -14.5 -58.5t-38.5 -49.5l-84 -81h111l-12 -70h-242l7 40l149 146q26 26 37.5 41.5t11.5 31.5q0 19 -13 30t-29 11q-20 0 -31.5 -12t-16.5 -29z" />
    <glyph glyph-name="three.numr" horiz-adv-x="280" 
d="M231 567q30 -13 47 -42.5t17 -64.5q0 -29 -11 -52.5t-29.5 -41t-44 -27t-54.5 -9.5q-39 0 -72.5 19t-48.5 52l63 37q8 -15 23 -26.5t35 -11.5q29 0 46.5 18t17.5 42q0 25 -17 41t-42 16q-16 0 -26 -3t-15 -5l7 40l75 81h-122l13 70h227l-7 -41z" />
    <glyph glyph-name="four.numr" horiz-adv-x="321" 
d="M341 700l-40 -219h50l-11 -64h-49l-14 -77h-76l14 77h-175l8 45l248 238h45zM226 481l14 77l-77 -77h63z" />
    <glyph glyph-name="five.numr" horiz-adv-x="277" 
d="M129 700h186l-13 -70h-117l-15 -50q25 0 47 -9.5t38 -26t25.5 -38t9.5 -46.5q0 -27 -11 -51t-29.5 -41.5t-44 -27.5t-54.5 -10q-35 0 -65.5 16t-47.5 42l60 39q8 -11 21.5 -19t33.5 -8q28 0 45 18.5t17 41.5q0 24 -17 39t-41 15q-14 0 -23.5 -4.5t-20.5 -11.5l-44 13z
" />
    <glyph glyph-name="six.numr" horiz-adv-x="305" 
d="M211 585q24 -3 44.5 -14t35.5 -27.5t24 -37.5t9 -46q0 -29 -11.5 -53t-30.5 -41t-43.5 -26.5t-50.5 -9.5q-30 0 -54.5 9.5t-42.5 26.5t-27.5 39.5t-9.5 48.5q0 25 10.5 48.5t30.5 49.5l113 148h89zM126 455q0 -26 18 -40.5t43 -14.5q27 0 44.5 17.5t17.5 41.5
q0 26 -17 42t-45 16q-9 0 -19.5 -2.5t-20.5 -6.5q-11 -16 -16 -27t-5 -26z" />
    <glyph glyph-name="seven.numr" horiz-adv-x="271" 
d="M93 700h243l-8 -41l-204 -319h-84l185 290h-144z" />
    <glyph glyph-name="eight.numr" horiz-adv-x="302" 
d="M321 459q0 -26 -10.5 -49.5t-29 -41t-43 -28t-52.5 -10.5t-51 9.5t-39.5 26t-25.5 38.5t-9 46q0 34 17 59.5t46 41.5q-16 19 -16 50q0 22 8.5 42t23.5 35t35.5 23.5t44.5 8.5q25 0 45 -9t34 -23.5t21.5 -33t7.5 -38.5q0 -24 -10 -42.5t-27 -31.5q30 -30 30 -73zM246 459
q0 21 -14.5 35.5t-36.5 14.5q-25 0 -42 -18t-17 -41q0 -22 14.5 -36t36.5 -14q24 0 41.5 18t17.5 41zM183 601q0 -14 10 -23.5t24 -9.5q17 0 26.5 11.5t9.5 26.5t-9.5 24.5t-24.5 9.5q-16 0 -26 -11.5t-10 -27.5z" />
    <glyph glyph-name="nine.numr" horiz-adv-x="305" 
d="M182 455q-24 3 -44.5 14t-35.5 27.5t-24 37.5t-9 46q0 29 11.5 53t30.5 41t43.5 26.5t50.5 9.5q30 0 54.5 -9.5t42.5 -26.5t27.5 -39.5t9.5 -48.5q0 -25 -10.5 -48.5t-30.5 -49.5l-113 -148h-89zM267 585q0 26 -18 40.5t-43 14.5q-27 0 -44.5 -17.5t-17.5 -41.5
q0 -26 17 -42t45 -16q9 0 19.5 2.5t20.5 6.5q11 16 16 27t5 26z" />
    <glyph glyph-name="zero.dnom" horiz-adv-x="327" 
d="M128 60q22 0 38 17.5t26.5 44t15 57.5t4.5 57q0 29 -10 46.5t-33 17.5q-22 0 -38 -17.5t-26 -44t-15 -57.5t-5 -57q0 -28 10 -46t33 -18zM128 -10q-50 0 -84 34t-34 100q0 43 8.5 87t27.5 79t49 57.5t74 22.5q50 0 84 -34t34 -100q0 -43 -8.5 -87t-27.5 -79t-49.5 -57.5
t-73.5 -22.5z" />
    <glyph glyph-name="one.dnom" horiz-adv-x="223" 
d="M29 304l119 56h45l-64 -360h-76l47 261l-85 -36z" />
    <glyph glyph-name="two.dnom" horiz-adv-x="285" 
d="M19 284q14 39 46.5 62.5t75.5 23.5q22 0 43 -8.5t36.5 -23t25 -35t9.5 -44.5q0 -32 -14.5 -58.5t-38.5 -49.5l-84 -81h111l-12 -70h-242l7 40l149 146q26 26 37.5 41.5t11.5 31.5q0 19 -13 30t-29 11q-20 0 -31.5 -12t-16.5 -29z" />
    <glyph glyph-name="three.dnom" horiz-adv-x="280" 
d="M171 227q30 -13 47 -42.5t17 -64.5q0 -29 -11 -52.5t-29.5 -41t-44 -27t-54.5 -9.5q-39 0 -72.5 19t-48.5 52l63 37q8 -15 23 -26.5t35 -11.5q29 0 46.5 18t17.5 42q0 25 -17 41t-42 16q-16 0 -26 -3t-15 -5l7 40l75 81h-122l13 70h227l-7 -41z" />
    <glyph glyph-name="four.dnom" horiz-adv-x="321" 
d="M281 360l-40 -219h50l-11 -64h-49l-14 -77h-76l14 77h-175l8 45l248 238h45zM166 141l14 77l-77 -77h63z" />
    <glyph glyph-name="five.dnom" horiz-adv-x="277" 
d="M71 360h186l-13 -70h-117l-15 -50q25 0 47 -9.5t38 -26t25.5 -38t9.5 -46.5q0 -27 -11 -51t-29.5 -41.5t-44 -27.5t-54.5 -10q-35 0 -65.5 16t-47.5 42l60 39q8 -11 21.5 -19t33.5 -8q28 0 45 18.5t17 41.5q0 24 -17 39t-41 15q-14 0 -23.5 -4.5t-20.5 -11.5l-44 13z" />
    <glyph glyph-name="six.dnom" horiz-adv-x="305" 
d="M152 245q24 -3 44.5 -14t35.5 -27.5t24 -37.5t9 -46q0 -29 -11.5 -53t-30.5 -41t-43.5 -26.5t-50.5 -9.5q-30 0 -54.5 9.5t-42.5 26.5t-27.5 39.5t-9.5 48.5q0 25 10.5 48.5t30.5 49.5l113 148h89zM67 115q0 -26 18 -40.5t43 -14.5q27 0 44.5 17.5t17.5 41.5q0 26 -17 42
t-45 16q-9 0 -19.5 -2.5t-20.5 -6.5q-11 -16 -16 -27t-5 -26z" />
    <glyph glyph-name="seven.dnom" horiz-adv-x="271" 
d="M33 360h243l-8 -41l-204 -319h-84l185 290h-144z" />
    <glyph glyph-name="eight.dnom" horiz-adv-x="302" 
d="M260 119q0 -26 -10.5 -49.5t-29 -41t-43 -28t-52.5 -10.5t-51 9.5t-39.5 26t-25.5 38.5t-9 46q0 34 17 59.5t46 41.5q-16 19 -16 50q0 22 8.5 42t23.5 35t35.5 23.5t44.5 8.5q25 0 45 -9t34 -23.5t21.5 -33t7.5 -38.5q0 -24 -10 -42.5t-27 -31.5q30 -30 30 -73zM185 119
q0 21 -14.5 35.5t-36.5 14.5q-25 0 -42 -18t-17 -41q0 -22 14.5 -36t36.5 -14q24 0 41.5 18t17.5 41zM122 261q0 -14 10 -23.5t24 -9.5q17 0 26.5 11.5t9.5 26.5t-9.5 24.5t-24.5 9.5q-16 0 -26 -11.5t-10 -27.5z" />
    <glyph glyph-name="nine.dnom" horiz-adv-x="305" 
d="M123 115q-24 3 -44.5 14t-35.5 27.5t-24 37.5t-9 46q0 29 11.5 53t30.5 41t43.5 26.5t50.5 9.5q30 0 54.5 -9.5t42.5 -26.5t27.5 -39.5t9.5 -48.5q0 -25 -10.5 -48.5t-30.5 -49.5l-113 -148h-89zM208 245q0 26 -18 40.5t-43 14.5q-27 0 -44.5 -17.5t-17.5 -41.5
q0 -26 17 -42t45 -16q9 0 19.5 2.5t20.5 6.5q11 16 16 27t5 26z" />
    <glyph glyph-name="quotedbl.tf" 
d="M214 700h96l-56 -245h-66zM414 700h96l-56 -245h-66z" />
    <glyph glyph-name="numbersign.tf" 
d="M440 195l-53 -195h-93l53 195h-137l-53 -195h-93l53 195h-102l16 90h110l34 130h-103l16 90h111l53 195h93l-53 -195h137l53 195h93l-53 -195h103l-16 -90h-111l-34 -130h103l-16 -90h-111zM234 285h137l34 130h-137z" />
    <glyph glyph-name="dollar.tf" 
d="M106 170q32 -38 75.5 -61.5t95.5 -23.5q25 0 48.5 8t41.5 22.5t29 35.5t11 47q0 37 -20 62t-49.5 44t-64.5 36.5t-64.5 40.5t-49.5 54.5t-20 79.5q0 39 15.5 72t42.5 58t62 41t74 21l19 108h95l-20 -111q38 -7 73.5 -25t64.5 -47l-63 -73q-26 26 -61 41t-73 15
q-20 0 -43 -5t-42 -16.5t-31.5 -29.5t-12.5 -43q0 -29 20 -49t49.5 -38t64.5 -37t64.5 -45t49.5 -63t20 -91q0 -42 -16 -77.5t-44 -63t-65.5 -44.5t-79.5 -21l-19 -107h-95l20 112q-51 11 -96 37.5t-77 69.5z" />
    <glyph glyph-name="quotesingle.tf" 
d="M311 700h96l-56 -245h-66z" />
    <glyph glyph-name="plus.tf" 
d="M331 210l-29 -170h-90l29 170h-170l16 90h170l30 170h90l-30 -170h170l-16 -90h-170z" />
    <glyph glyph-name="zero.tf" 
d="M360 615q-35 0 -62.5 -17.5t-49.5 -46.5t-37.5 -67.5t-25.5 -79.5t-15 -83t-5 -78q0 -34 5 -63t17.5 -50t33 -33t52.5 -12q34 0 62 17.5t50 46.5t37.5 67.5t25.5 79.5t15 83t5 78q0 34 -5 63t-17.5 50t-33.5 33t-52 12zM273 -10q-53 0 -92 18.5t-65 52t-38.5 80
t-12.5 102.5q0 52 7.5 107t22.5 107t39 98t56.5 80.5t75 54.5t94.5 20t91 -18.5t65 -52t39 -80t13 -102.5q0 -52 -7.5 -107t-22.5 -107t-39 -98t-56.5 -80.5t-75 -54.5t-94.5 -20z" />
    <glyph glyph-name="one.tf" 
d="M170 594l205 106h69l-107 -605h171l-17 -95h-449l17 95h179l86 483l-171 -85z" />
    <glyph glyph-name="two.tf" 
d="M126 553q13 40 35.5 69.5t51 49t61 29t66.5 9.5q45 0 82.5 -15.5t64.5 -42.5t42 -63t15 -77q0 -32 -11 -62t-28.5 -57.5t-40 -52.5t-46.5 -48l-203 -197h257l-17 -95h-420l11 65l282 274l46.5 46.5t37 42t24 41t8.5 43.5q0 45 -30 74t-74 29q-48 0 -78 -27t-45 -66z" />
    <glyph glyph-name="three.tf" 
d="M364 455q67 -23 107 -81t40 -133q0 -51 -19.5 -97t-54 -80t-80.5 -54t-99 -20q-71 0 -128.5 31.5t-86.5 84.5l80 54q20 -32 54 -53.5t81 -21.5q33 0 61 13t48.5 34.5t32 49.5t11.5 59q0 30 -10.5 54.5t-28.5 42t-43.5 27.5t-55.5 10q-24 0 -43.5 -3.5t-29.5 -7.5l11 65
l175 176h-237l17 95h390l-12 -65z" />
    <glyph glyph-name="four.tf" 
d="M11 235l472 465h69l-76 -435h111l-16 -95h-112l-30 -170h-99l31 170h-361zM377 265l41 235l-236 -235h195z" />
    <glyph glyph-name="five.tf" 
d="M106 355l110 345h338l-17 -95h-252l-45 -141q24 6 48 6q44 0 83 -18t68.5 -49t46.5 -73t17 -90q0 -51 -20 -96.5t-54.5 -79.5t-81.5 -54t-102 -20q-73 0 -125.5 29.5t-84.5 70.5l76 59q18 -23 51 -43.5t83 -20.5q33 0 61.5 12t50 33t34 49.5t12.5 60.5q0 30 -9.5 55
t-27 42.5t-42 27.5t-53.5 10t-54.5 -11t-45.5 -29z" />
    <glyph glyph-name="six.tf" 
d="M311 470q48 0 90.5 -18t74 -49t49.5 -72.5t18 -89.5q0 -53 -20 -99t-54.5 -80t-80 -53t-97.5 -19q-51 0 -95 17.5t-75.5 48t-49.5 72.5t-18 91q0 45 15 84.5t41 71.5l259 325h126zM206 341q-5 -6 -14 -17.5t-17.5 -27t-15 -35.5t-6.5 -42q0 -30 10.5 -54.5t29 -42
t43.5 -27.5t55 -10q32 0 59.5 12.5t48 33.5t32.5 49t12 59q0 30 -10.5 55t-29 43t-44 28t-55.5 10q-20 0 -41.5 -4t-39.5 -11z" />
    <glyph glyph-name="seven.tf" 
d="M61 0l398 605h-313l17 95h440l-12 -65l-416 -635h-114z" />
    <glyph glyph-name="eight.tf" 
d="M155 513q0 42 16 78t43 62.5t64 41.5t79 15q40 0 74 -13.5t59 -37t39 -55t14 -67.5q0 -52 -23.5 -92.5t-62.5 -66.5q34 -28 53 -66.5t19 -83.5q0 -50 -19 -93.5t-51.5 -75.5t-76.5 -50.5t-95 -18.5q-48 0 -88.5 16.5t-70.5 45t-46.5 66t-16.5 79.5q0 71 35.5 125.5
t95.5 82.5q-20 22 -30.5 49t-10.5 59zM429 223q0 51 -33.5 84t-88.5 33q-29 0 -55 -11t-45.5 -30t-30.5 -44t-11 -53q0 -51 33.5 -84t88.5 -33q29 0 55 11t45.5 30t30.5 44t11 53zM443 532q0 36 -24 59.5t-62 23.5q-21 0 -39.5 -7.5t-32.5 -21t-22 -31t-8 -37.5
q0 -36 24 -59.5t62 -23.5q21 0 39.5 7.5t32.5 21t22 31t8 37.5z" />
    <glyph glyph-name="nine.tf" 
d="M322 230q-48 0 -90.5 18t-74 49t-49.5 72.5t-18 89.5q0 53 20 99t54.5 79.5t80 53t97.5 19.5q51 0 95 -17.5t75.5 -48.5t49.5 -72.5t18 -90.5q0 -45 -15 -84.5t-41 -71.5l-259 -325h-126zM427 359q5 6 14 17.5t17.5 27t15 35t6.5 42.5q0 30 -10.5 54.5t-29 42t-43.5 27.5
t-55 10q-32 0 -59.5 -12.5t-48 -33.5t-32.5 -49t-12 -59q0 -30 10.5 -55t29 -43t44 -28t55.5 -10q20 0 41.5 4t39.5 11z" />
    <glyph glyph-name="less.tf" 
d="M74 285l473 188l-18 -105l-301 -120l258 -119l-16 -92l-407 188z" />
    <glyph glyph-name="equal.tf" 
d="M55 120l16 90h430l-16 -90h-430zM87 300l16 90h430l-16 -90h-430z" />
    <glyph glyph-name="greater.tf" 
d="M514 225l-473 -188l18 105l301 120l-258 119l16 92l407 -188z" />
    <glyph glyph-name="asciicircum.tf" 
d="M105 350l240 350h65l115 -350h-94l-71 214l-147 -214h-108z" />
    <glyph glyph-name="asciitilde.tf" 
d="M560 296q-11 -23 -27 -45.5t-37 -40t-46.5 -28.5t-55.5 -11q-25 0 -44 6.5t-34.5 16.5t-28.5 21t-25 21t-24.5 16.5t-27.5 6.5q-29 0 -52 -24t-37 -53l-76 42q11 23 27 45.5t37 40t46.5 28.5t55.5 11q25 0 44 -6.5t34.5 -16.5t28.5 -21t25 -21t24.5 -16.5t27.5 -6.5
q29 0 52 24t37 53z" />
    <glyph glyph-name="cent.tf" 
d="M508 85q-33 -44 -80.5 -68.5t-107.5 -26.5l-18 -105h-96l21 118q-67 23 -109 78.5t-42 131.5q0 51 17.5 95.5t48.5 79t73.5 56t92.5 25.5l19 106h96l-21 -116q78 -25 124 -96l-74 -53q-20 30 -51.5 50t-73.5 20q-32 0 -60.5 -13t-49.5 -35.5t-33.5 -52t-12.5 -61.5
q0 -62 38.5 -100t100.5 -38q42 0 74 18t55 46z" />
    <glyph glyph-name="sterling.tf" 
d="M435 400l-15 -85h-122v-4q0 -75 -21 -127t-55 -94h289l-16 -90h-475l10 60q50 20 84 47.5t54.5 60.5t29.5 69t9 74v4h-112l15 85h84q-5 22 -9 45t-4 47q0 48 16 88t44.5 69t67 45t83.5 16q64 0 112.5 -30t71.5 -78l-76 -47q-16 30 -44.5 47.5t-63.5 17.5q-24 0 -45.5 -9
t-38 -25.5t-26.5 -40t-10 -53.5q0 -22 5 -44.5t10 -47.5h148z" />
    <glyph glyph-name="currency.tf" 
d="M109 351q0 31 8.5 59t23.5 52l-76 76l63 63l76 -76q24 15 52 23.5t59 8.5t59 -8.5t52 -23.5l76 76l63 -63l-76 -76q32 -49 32 -111t-32 -111l76 -76l-63 -63l-76 76q-49 -32 -111 -32t-111 32l-76 -76l-63 63l76 76q-15 24 -23.5 52t-8.5 59zM204 351q0 -23 9 -43t24 -35
t35 -24t43 -9t43 9t35 24t24 35t9 43t-9 43t-24 35t-35 24t-43 9t-43 -9t-35 -24t-24 -35t-9 -43z" />
    <glyph glyph-name="yen.tf" 
d="M542 315l-15 -85h-192l-40 -230h-99l40 230h-191l15 85h194l-32 70h-149l15 85h96l-105 230h106l129 -285l231 285h124l-187 -230h88l-15 -85h-142l-57 -70h186z" />
    <glyph glyph-name="section.tf" 
d="M538 208q0 -56 -31 -101.5t-79 -73.5q7 -14 11 -31t4 -37q0 -44 -19 -79.5t-50.5 -61.5t-72.5 -40t-85 -14q-54 0 -105.5 18.5t-93.5 59.5l63 73q26 -26 61 -41t73 -15q20 0 43 5t42 16.5t31.5 29t12.5 43.5q0 28 -21.5 47.5t-54.5 36.5t-70.5 34.5t-70.5 43t-54.5 61.5
t-21.5 90q0 56 30.5 101.5t78.5 73.5q-14 30 -14 68q0 43 19 79t50.5 62t72.5 40t85 14q54 0 105.5 -18.5t93.5 -59.5l-63 -73q-26 26 -61 41t-73 15q-20 0 -43 -5t-42 -16.5t-31.5 -29.5t-12.5 -43q0 -29 21.5 -48t54.5 -36t70.5 -34.5t70.5 -43t54.5 -61.5t21.5 -90z
M438 208q0 37 -21 60t-53 40.5t-69 32.5t-70 36q-32 -13 -53.5 -40t-21.5 -65q0 -37 21 -60t53 -40.5t69 -33t70 -36.5q32 14 53.5 41t21.5 65z" />
    <glyph glyph-name="logicalnot.tf" 
d="M485 120h-90l32 180h-340l16 90h430z" />
    <glyph glyph-name="plusminus.tf" 
d="M291 490h90l-23 -135h170l-16 -90h-170l-23 -135h-90l23 135h-170l16 90h170zM36 10l16 90h430l-16 -90h-430z" />
    <glyph glyph-name="mu.tf" 
d="M260 -10q-78 0 -129 54l-50 -284h-96l123 700h96l-34 -194q-4 -20 -6 -42.5t-2 -38.5q0 -51 31 -78t75 -27q40 0 77 20t66 55l53 305h96l-81 -460h-91l8 40q-28 -23 -62.5 -36.5t-73.5 -13.5z" />
    <glyph glyph-name="multiply.tf" 
d="M59 115l172 146l-119 146l69 57l118 -145l171 145l59 -69l-172 -146l119 -146l-69 -57l-119 145l-170 -145z" />
    <glyph glyph-name="divide.tf" 
d="M71 210l16 90h430l-16 -90h-430zM196 95q0 29 20.5 49.5t49.5 20.5t49.5 -20.5t20.5 -49.5t-20.5 -49.5t-49.5 -20.5t-49.5 20.5t-20.5 49.5zM253 415q0 29 20.5 49.5t49.5 20.5t49.5 -20.5t20.5 -49.5t-20.5 -49.5t-49.5 -20.5t-49.5 20.5t-20.5 49.5z" />
    <glyph glyph-name="florin.tf" 
d="M212 -44q8 28 14 69t10.5 88.5t8 99t8.5 102.5h-157l15 85h150q4 34 8.5 64t11.5 55q9 36 23.5 69t37.5 58q28 31 66.5 47.5t87.5 16.5q18 0 37 -3t38 -11l-26 -83q-11 3 -22.5 5t-26.5 2q-52 0 -83 -35q-25 -30 -39 -81q-6 -20 -10.5 -46.5t-8.5 -57.5h172l-15 -85h-166
q-4 -49 -8 -101t-8.5 -101.5t-10 -93.5t-14.5 -78q-9 -36 -23.5 -69t-37.5 -58q-28 -31 -66.5 -47.5t-87.5 -16.5q-18 0 -37 3t-38 11l26 83q11 -3 22.5 -5t26.5 -2q52 0 83 35q25 30 39 81z" />
    <glyph glyph-name="pi.tf" 
d="M406 -10q-32 23 -47.5 50t-15.5 63q0 18 3 38t6 35l35 194h-98l-66 -370h-96l65 364q-29 -5 -53 -22.5t-41 -37.5l-75 49q18 26 47.5 50.5t71.5 40.5t115 16h342l-16 -90h-100l-39 -217q-2 -13 -3.5 -23.5t-1.5 -19.5q0 -13 4.5 -23.5t16.5 -18.5z" />
    <glyph glyph-name="Euro.tf" 
d="M85 470q18 52 48 96t70.5 76t90 50t105.5 18q69 0 124.5 -27.5t101.5 -85.5l-69 -67q-35 44 -72 64.5t-85 20.5q-35 0 -66.5 -11t-57.5 -30t-47 -46t-36 -58h264l-15 -85h-275q-2 -14 -3 -27t-1 -27v-16h266l-15 -85h-236q22 -66 70 -105.5t119 -39.5q27 0 50 4.5t44 15
t41 27t42 39.5l68 -67q-54 -64 -115 -89t-130 -25q-56 0 -103.5 17.5t-85 49t-64 75.5t-39.5 98h-99l15 85h72v16q0 27 3 54h-62l15 85h67z" />
    <glyph glyph-name="partialdiff.tf" 
d="M304 380q-34 0 -63.5 -13t-51.5 -34.5t-34.5 -51t-12.5 -62.5q0 -31 11 -56.5t30.5 -44t45 -28.5t55.5 -10q33 0 62 13t50 35t33.5 51.5t12.5 61.5q0 28 -8 53.5t-22 53.5q-21 15 -47 23.5t-61 8.5zM262 710h99l127 -304q6 -14 14.5 -33t16 -41t13 -46t5.5 -48
q0 -51 -20.5 -96t-55 -79t-80.5 -53.5t-97 -19.5q-50 0 -93.5 17.5t-75.5 48t-50 72.5t-18 91q0 52 20.5 98t55.5 80t81.5 53.5t99.5 19.5q33 0 60 -7z" />
    <glyph glyph-name="Delta.tf" 
d="M411 700l134 -640l-10 -60h-560l10 60l361 640h65zM106 90h340l-92 440z" />
    <glyph glyph-name="product.tf" 
d="M75 0l108 610h-101l16 90h550l-16 -90h-99l-108 -610h-96l108 610h-158l-108 -610h-96z" />
    <glyph glyph-name="summation.tf" 
d="M113 700h510l-35 -200h-91l20 110h-275l181 -220l-11 -60l-258 -240h281l19 110h91l-35 -200h-530l11 60l332 310l-221 270z" />
    <glyph glyph-name="minus.tf" 
d="M71 210l16 90h430l-16 -90h-430z" />
    <glyph glyph-name="radical.tf" 
d="M218 460l67 -290l282 530h103l-373 -700h-65l-87 370h-113l16 90h170z" />
    <glyph glyph-name="integral.tf" 
d="M191 -44q9 30 15 73.5t10.5 94.5t8.5 105.5t9 107t11 100t15 82.5q9 36 23.5 69t37.5 58q28 31 66.5 47.5t87.5 16.5q18 0 37 -3t38 -11l-26 -83q-11 3 -22.5 5t-26.5 2q-52 0 -83 -35q-25 -30 -39 -81q-9 -30 -15 -73.5t-10.5 -94.5t-8.5 -105.5t-9 -107t-11 -100
t-15 -82.5q-9 -36 -23.5 -69t-37.5 -58q-28 -31 -66.5 -47.5t-87.5 -16.5q-18 0 -37 3t-38 11l26 83q11 -3 22.5 -5t26.5 -2q52 0 83 35q25 30 39 81z" />
    <glyph glyph-name="approxequal.tf" 
d="M570 386q-11 -23 -27 -45.5t-37 -40t-46.5 -28.5t-55.5 -11q-25 0 -44 6.5t-34.5 16.5t-28.5 21t-25 21t-24.5 16.5t-27.5 6.5q-29 0 -52 -24t-37 -53l-76 42q11 23 27 45.5t37 40t46.5 28.5t55.5 11q25 0 44 -6.5t34.5 -16.5t28.5 -21t25 -21t24.5 -16.5t27.5 -6.5
q29 0 52 24t37 53zM540 206q-11 -23 -27 -45.5t-37 -40t-46.5 -28.5t-55.5 -11q-25 0 -44 6.5t-34.5 16.5t-28.5 21t-25 21t-24.5 16.5t-27.5 6.5q-29 0 -52 -24t-37 -53l-76 42q11 23 27 45.5t37 40t46.5 28.5t55.5 11q25 0 44 -6.5t34.5 -16.5t28.5 -21t25 -21t24.5 -16.5
t27.5 -6.5q29 0 52 24t37 53z" />
    <glyph glyph-name="notequal.tf" 
d="M384 300l-68 -90h185l-16 -90h-237l-79 -105h-113l79 105h-80l16 90h132l68 90h-184l16 90h236l79 105h113l-79 -105h81l-16 -90h-133z" />
    <glyph glyph-name="lessequal.tf" 
d="M551 492l-18 -100l-262 -82l233 -83l-15 -90l-414 148l10 60zM36 10l16 90h430l-16 -90h-430z" />
    <glyph glyph-name="greaterequal.tf" 
d="M59 137l18 100l262 82l-233 83l15 90l414 -148l-10 -60zM482 100l-16 -90h-430l16 90h430z" />
    <glyph glyph-name="lozenge.tf" 
d="M344 700h65l151 -320l-11 -60l-263 -320h-65l-151 320l11 60zM265 116l203 248l-103 220l-204 -248z" />
    <glyph glyph-name="parenleft.case" horiz-adv-x="450" 
d="M478 750q-47 -52 -85 -110.5t-65 -122.5t-42 -132t-15 -138q0 -81 18.5 -159t53.5 -150l-80 -48q-42 78 -64.5 168.5t-22.5 188.5q0 82 16.5 158t47 146.5t73 135t93.5 123.5z" />
    <glyph glyph-name="parenright.case" horiz-adv-x="450" 
d="M12 -50q46 52 84.5 110.5t65.5 122t42 131.5t15 139q0 81 -18.5 159t-53.5 150l80 48q42 -78 64.5 -168.5t22.5 -188.5q0 -82 -16.5 -158t-47 -146.5t-73 -135t-93.5 -123.5z" />
    <glyph glyph-name="hyphen.case" horiz-adv-x="454" 
d="M404 420l-14 -80h-290l14 80h290z" />
    <glyph glyph-name="at.case" horiz-adv-x="1004" 
d="M642 180q-9 -8 -22.5 -18t-32.5 -18t-43 -13.5t-54 -5.5q-36 0 -72 13t-62 36q-32 29 -50.5 69t-18.5 88t19 89t51.5 71t74.5 47t89 17q49 0 82 -15.5t50 -30.5l7 36h89l-38 -215q-1 -3 -2 -10.5t-2 -16t-2 -16.5t-1 -12q0 -36 19 -50.5t42 -14.5q25 0 44 13t31.5 36
t18.5 54.5t6 69.5q0 68 -25.5 125t-70 98.5t-106 65t-133.5 23.5t-135 -28t-110.5 -76t-74.5 -113t-27 -138q0 -74 27 -138.5t74.5 -112.5t110.5 -76t135 -28q58 0 109.5 18.5t95.5 50.5l48 -70q-52 -40 -116.5 -62t-136.5 -22q-91 0 -170.5 34.5t-139 94.5t-93.5 140
t-34 171t34 171t93.5 140t139 94.5t170.5 34.5q88 0 165 -29.5t134.5 -82t90.5 -125.5t33 -160q0 -50 -12 -96.5t-35.5 -82.5t-59 -57.5t-83.5 -21.5q-31 0 -64.5 13.5t-56.5 41.5zM637 419q-18 23 -49 37t-62 14q-28 0 -54.5 -9.5t-47.5 -27.5t-33.5 -44t-12.5 -59
q0 -53 34 -86.5t87 -33.5q37 0 66.5 15.5t47.5 35.5q0 11 1.5 27t4.5 31z" />
    <glyph glyph-name="bracketleft.case" horiz-adv-x="450" 
d="M263 800h251l-16 -90h-155l-126 -720h155l-16 -90h-251z" />
    <glyph glyph-name="bracketright.case" horiz-adv-x="450" 
d="M227 -100h-251l16 90h155l126 720h-155l16 90h251z" />
    <glyph glyph-name="braceleft.case" horiz-adv-x="450" 
d="M320 636q-5 -27 -7 -49t-3 -42t-2.5 -39.5t-5.5 -42.5q-9 -52 -29.5 -80t-50.5 -45q16 -12 27.5 -31t11.5 -51q0 -26 -7 -56.5t-15 -60t-15 -56t-7 -45.5q0 -26 21 -37t54 -11h25l-16 -89q-5 -1 -11 -1h-11q-23 2 -47 5.5t-45 15.5q-29 16 -47 44.5t-18 64.5q0 29 7 58.5
t16 58.5t16 58.5t7 58.5q0 31 -19 43t-51 13l11 60q42 0 61.5 16t30.5 54q6 21 9 44t4.5 47.5t4 50.5t7.5 54q16 84 65.5 119t129.5 35h20.5t17.5 -1l-16 -89h-21q-39 0 -67 -17.5t-35 -56.5z" />
    <glyph glyph-name="bar.case" horiz-adv-x="257" 
d="M24 -100l159 900h96l-159 -900h-96z" />
    <glyph glyph-name="braceright.case" horiz-adv-x="450" 
d="M170 64q5 27 7 49t3 42t2.5 39.5t5.5 42.5q9 52 29.5 80t50.5 45q-16 12 -27.5 31t-11.5 51q0 26 7 56.5t15 60t15 56t7 45.5q0 26 -21 37t-54 11h-25l16 89q5 1 11 1h11q23 -2 47 -5.5t45 -15.5q29 -16 47 -44.5t18 -64.5q0 -29 -7 -58.5t-16 -58.5t-16 -58.5t-7 -58.5
q0 -31 19 -43t51 -13l-11 -60q-42 0 -61.5 -16t-30.5 -54q-6 -21 -9 -44t-4.5 -47.5t-4 -50.5t-7.5 -54q-16 -84 -66 -119t-129 -35h-20.5t-17.5 1l16 89h21q39 0 67 17.5t35 56.5z" />
    <glyph glyph-name="guillemotleft.case" horiz-adv-x="611" 
d="M174 322l113 -177h-106l-103 165l8 50l161 165h125zM414 322l113 -177h-106l-103 165l8 50l161 165h125z" />
    <glyph glyph-name="periodcentered.case" horiz-adv-x="340" 
d="M120 350q0 29 20.5 49.5t49.5 20.5t49.5 -20.5t20.5 -49.5t-20.5 -49.5t-49.5 -20.5t-49.5 20.5t-20.5 49.5z" />
    <glyph glyph-name="guillemotright.case" horiz-adv-x="611" 
d="M230 348l-113 177h106l103 -165l-8 -50l-161 -165h-125zM470 348l-113 177h106l103 -165l-8 -50l-161 -165h-125z" />
    <glyph glyph-name="endash.case" horiz-adv-x="484" 
d="M494 420l-14 -80h-440l14 80h440z" />
    <glyph glyph-name="emdash.case" horiz-adv-x="784" 
d="M794 420l-14 -80h-740l14 80h740z" />
    <glyph glyph-name="bullet.case" horiz-adv-x="560" 
d="M105 350q0 41 16 77.5t43 63.5t63.5 43t77.5 16t77.5 -16t63.5 -43t43 -63.5t16 -77.5t-16 -77.5t-43 -63.5t-63.5 -43t-77.5 -16t-77.5 16t-63.5 43t-43 63.5t-16 77.5z" />
    <glyph glyph-name="guilsinglleft.case" horiz-adv-x="371" 
d="M174 322l113 -177h-106l-103 165l8 50l161 165h125z" />
    <glyph glyph-name="guilsinglright.case" horiz-adv-x="371" 
d="M230 348l-113 177h106l103 -165l-8 -50l-161 -165h-125z" />
    <glyph glyph-name="zero.zero" horiz-adv-x="602" 
d="M275 -10q-53 0 -92 18.5t-65 52t-38.5 80t-12.5 102.5q0 52 7.5 107t22.5 107t39 98t56.5 80.5t75 54.5t94.5 20t91 -18.5t65 -52t39 -80t13 -102.5q0 -52 -7.5 -107t-22.5 -107t-39 -98t-56.5 -80.5t-75 -54.5t-94.5 -20zM362 615q-35 0 -62.5 -17.5t-49.5 -46.5
t-37.5 -67.5t-25.5 -79.5t-15 -83t-5 -78v-21l267 365q-25 28 -72 28zM275 85q34 0 62 17.5t50 46.5t37.5 67.5t25.5 79.5t15 83t5 78v10t-1 10l-266 -365q25 -27 72 -27z" />
    <glyph glyph-name="uni2070.zero" horiz-adv-x="327" 
d="M188 330q-50 0 -84 34t-34 100q0 43 8.5 87t27.5 79t49 57.5t74 22.5q50 0 84 -34t34 -100q0 -43 -8.5 -87t-27.5 -79t-49.5 -57.5t-73.5 -22.5zM188 400q20 0 35 14.5t25 36.5t15.5 49t7.5 53l-107 -145q10 -8 24 -8zM229 640q-20 0 -34.5 -14t-24.5 -36t-16 -48.5
t-8 -51.5l105 143q-8 7 -22 7z" />
    <glyph glyph-name="uni2080.zero" horiz-adv-x="327" 
d="M128 -10q-50 0 -84 34t-34 100q0 43 8.5 87t27.5 79t49 57.5t74 22.5q50 0 84 -34t34 -100q0 -43 -8.5 -87t-27.5 -79t-49.5 -57.5t-73.5 -22.5zM128 60q20 0 35 14.5t25 36.5t15.5 49t7.5 53l-107 -145q10 -8 24 -8zM169 300q-20 0 -34.5 -14t-24.5 -36t-16 -48.5
t-8 -51.5l105 143q-8 7 -22 7z" />
    <glyph glyph-name="zero.numr.zero" horiz-adv-x="327" 
d="M188 330q-50 0 -84 34t-34 100q0 43 8.5 87t27.5 79t49 57.5t74 22.5q50 0 84 -34t34 -100q0 -43 -8.5 -87t-27.5 -79t-49.5 -57.5t-73.5 -22.5zM188 400q20 0 35 14.5t25 36.5t15.5 49t7.5 53l-107 -145q10 -8 24 -8zM229 640q-20 0 -34.5 -14t-24.5 -36t-16 -48.5
t-8 -51.5l105 143q-8 7 -22 7z" />
    <glyph glyph-name="zero.dnom.zero" horiz-adv-x="327" 
d="M128 -10q-50 0 -84 34t-34 100q0 43 8.5 87t27.5 79t49 57.5t74 22.5q50 0 84 -34t34 -100q0 -43 -8.5 -87t-27.5 -79t-49.5 -57.5t-73.5 -22.5zM128 60q20 0 35 14.5t25 36.5t15.5 49t7.5 53l-107 -145q10 -8 24 -8zM169 300q-20 0 -34.5 -14t-24.5 -36t-16 -48.5
t-8 -51.5l105 143q-8 7 -22 7z" />
    <glyph glyph-name="zero.tf.zero" 
d="M273 -10q-53 0 -92 18.5t-65 52t-38.5 80t-12.5 102.5q0 52 7.5 107t22.5 107t39 98t56.5 80.5t75 54.5t94.5 20t91 -18.5t65 -52t39 -80t13 -102.5q0 -52 -7.5 -107t-22.5 -107t-39 -98t-56.5 -80.5t-75 -54.5t-94.5 -20zM360 615q-35 0 -62.5 -17.5t-49.5 -46.5
t-37.5 -67.5t-25.5 -79.5t-15 -83t-5 -78v-21l267 365q-25 28 -72 28zM273 85q34 0 62 17.5t50 46.5t37.5 67.5t25.5 79.5t15 83t5 78v10t-1 10l-266 -365q25 -27 72 -27z" />
    <glyph glyph-name="a.ss01" horiz-adv-x="531" 
d="M360 195q-44 24 -105 24q-21 0 -42 -5t-37 -14.5t-26 -24.5t-10 -35q0 -28 22 -46.5t56 -18.5q38 0 73 19.5t61 50.5zM331 0l8 40q-26 -25 -61.5 -37.5t-73.5 -12.5q-30 0 -58.5 11t-51 30.5t-36 46t-13.5 58.5q0 42 16.5 73.5t45 52t66 31t78.5 10.5q45 0 76.5 -11
t44.5 -18q3 10 3 19q0 45 -32 68.5t-80 23.5q-32 0 -65 -10t-57 -23l-37 77q23 14 65.5 27.5t96.5 13.5q47 0 84.5 -15t64 -39.5t40.5 -57t14 -67.5q0 -14 -1.5 -30.5t-6.5 -40.5l-39 -220h-91z" />
    <glyph glyph-name="agrave.ss01" horiz-adv-x="531" 
d="M360 195q-44 24 -105 24q-21 0 -42 -5t-37 -14.5t-26 -24.5t-10 -35q0 -28 22 -46.5t56 -18.5q38 0 73 19.5t61 50.5zM331 0l8 40q-26 -25 -61.5 -37.5t-73.5 -12.5q-30 0 -58.5 11t-51 30.5t-36 46t-13.5 58.5q0 42 16.5 73.5t45 52t66 31t78.5 10.5q45 0 76.5 -11
t44.5 -18q3 10 3 19q0 45 -32 68.5t-80 23.5q-32 0 -65 -10t-57 -23l-37 77q23 14 65.5 27.5t96.5 13.5q47 0 84.5 -15t64 -39.5t40.5 -57t14 -67.5q0 -14 -1.5 -30.5t-6.5 -40.5l-39 -220h-91zM278 540l-105 150h105l65 -150h-65z" />
    <glyph glyph-name="aacute.ss01" horiz-adv-x="531" 
d="M360 195q-44 24 -105 24q-21 0 -42 -5t-37 -14.5t-26 -24.5t-10 -35q0 -28 22 -46.5t56 -18.5q38 0 73 19.5t61 50.5zM331 0l8 40q-26 -25 -61.5 -37.5t-73.5 -12.5q-30 0 -58.5 11t-51 30.5t-36 46t-13.5 58.5q0 42 16.5 73.5t45 52t66 31t78.5 10.5q45 0 76.5 -11
t44.5 -18q3 10 3 19q0 45 -32 68.5t-80 23.5q-32 0 -65 -10t-57 -23l-37 77q23 14 65.5 27.5t96.5 13.5q47 0 84.5 -15t64 -39.5t40.5 -57t14 -67.5q0 -14 -1.5 -30.5t-6.5 -40.5l-39 -220h-91zM279 540l65 150h105l-105 -150h-65z" />
    <glyph glyph-name="acircumflex.ss01" horiz-adv-x="531" 
d="M360 195q-44 24 -105 24q-21 0 -42 -5t-37 -14.5t-26 -24.5t-10 -35q0 -28 22 -46.5t56 -18.5q38 0 73 19.5t61 50.5zM331 0l8 40q-26 -25 -61.5 -37.5t-73.5 -12.5q-30 0 -58.5 11t-51 30.5t-36 46t-13.5 58.5q0 42 16.5 73.5t45 52t66 31t78.5 10.5q45 0 76.5 -11
t44.5 -18q3 10 3 19q0 45 -32 68.5t-80 23.5q-32 0 -65 -10t-57 -23l-37 77q23 14 65.5 27.5t96.5 13.5q47 0 84.5 -15t64 -39.5t40.5 -57t14 -67.5q0 -14 -1.5 -30.5t-6.5 -40.5l-39 -220h-91zM162 540l122 150h110l68 -150h-65l-58 88l-112 -88h-65z" />
    <glyph glyph-name="atilde.ss01" horiz-adv-x="531" 
d="M360 195q-44 24 -105 24q-21 0 -42 -5t-37 -14.5t-26 -24.5t-10 -35q0 -28 22 -46.5t56 -18.5q38 0 73 19.5t61 50.5zM331 0l8 40q-26 -25 -61.5 -37.5t-73.5 -12.5q-30 0 -58.5 11t-51 30.5t-36 46t-13.5 58.5q0 42 16.5 73.5t45 52t66 31t78.5 10.5q45 0 76.5 -11
t44.5 -18q3 10 3 19q0 45 -32 68.5t-80 23.5q-32 0 -65 -10t-57 -23l-37 77q23 14 65.5 27.5t96.5 13.5q47 0 84.5 -15t64 -39.5t40.5 -57t14 -67.5q0 -14 -1.5 -30.5t-6.5 -40.5l-39 -220h-91zM156 571q1 22 8.5 42t20.5 35t31 23.5t41 8.5q19 0 37 -7t35 -15.5t33 -15.5
t31 -7q17 0 25.5 11.5t12.5 33.5l65 -21q-1 -22 -8.5 -42t-20.5 -35t-31.5 -23.5t-40.5 -8.5q-19 0 -37 7t-35 15.5t-33 15.5t-31 7q-17 0 -25.5 -11.5t-12.5 -33.5z" />
    <glyph glyph-name="adieresis.ss01" horiz-adv-x="531" 
d="M360 195q-44 24 -105 24q-21 0 -42 -5t-37 -14.5t-26 -24.5t-10 -35q0 -28 22 -46.5t56 -18.5q38 0 73 19.5t61 50.5zM331 0l8 40q-26 -25 -61.5 -37.5t-73.5 -12.5q-30 0 -58.5 11t-51 30.5t-36 46t-13.5 58.5q0 42 16.5 73.5t45 52t66 31t78.5 10.5q45 0 76.5 -11
t44.5 -18q3 10 3 19q0 45 -32 68.5t-80 23.5q-32 0 -65 -10t-57 -23l-37 77q23 14 65.5 27.5t96.5 13.5q47 0 84.5 -15t64 -39.5t40.5 -57t14 -67.5q0 -14 -1.5 -30.5t-6.5 -40.5l-39 -220h-91zM181 607q0 26 18 44.5t44 18.5t44.5 -18.5t18.5 -44.5t-18.5 -44t-44.5 -18
t-44 18t-18 44zM366 607q0 26 18 44.5t44 18.5t44.5 -18.5t18.5 -44.5t-18.5 -44t-44.5 -18t-44 18t-18 44z" />
    <glyph glyph-name="aring.ss01" horiz-adv-x="531" 
d="M360 195q-44 24 -105 24q-21 0 -42 -5t-37 -14.5t-26 -24.5t-10 -35q0 -28 22 -46.5t56 -18.5q38 0 73 19.5t61 50.5zM331 0l8 40q-26 -25 -61.5 -37.5t-73.5 -12.5q-30 0 -58.5 11t-51 30.5t-36 46t-13.5 58.5q0 42 16.5 73.5t45 52t66 31t78.5 10.5q45 0 76.5 -11
t44.5 -18q3 10 3 19q0 45 -32 68.5t-80 23.5q-32 0 -65 -10t-57 -23l-37 77q23 14 65.5 27.5t96.5 13.5q47 0 84.5 -15t64 -39.5t40.5 -57t14 -67.5q0 -14 -1.5 -30.5t-6.5 -40.5l-39 -220h-91zM227 620q0 42 29 71t71 29t71 -29t29 -71t-29 -71t-71 -29t-71 29t-29 71z
M287 620q0 -17 11.5 -28.5t28.5 -11.5t28.5 11.5t11.5 28.5t-11.5 28.5t-28.5 11.5t-28.5 -11.5t-11.5 -28.5z" />
    <glyph glyph-name="ae.ss01" horiz-adv-x="849" 
d="M331 0l8 40q-26 -25 -61.5 -37.5t-73.5 -12.5q-30 0 -58.5 11t-51 30.5t-36 46t-13.5 58.5q0 42 16.5 73.5t45 52t66 31t78.5 10.5q45 0 76.5 -11t44.5 -18q3 10 3 19q0 45 -32 68.5t-80 23.5q-32 0 -65 -10t-57 -23l-37 77q23 14 65.5 27.5t96.5 13.5q58 0 100 -21.5
t66 -56.5q30 36 73 57t98 21q47 0 85 -16.5t64.5 -46t40.5 -69.5t14 -87q0 -9 -1 -21.5t-3 -19.5h-349q1 -29 11 -54t27.5 -43.5t42 -29t56.5 -10.5q34 0 64 13t58 36l57 -61q-34 -30 -74.5 -50.5t-103.5 -20.5q-39 0 -78 11.5t-72 37.5q-5 3 -8.5 6.5l-7.5 7.5l-9 -53h-86z
M360 195q-44 24 -105 24q-21 0 -42 -5t-37 -14.5t-26 -24.5t-10 -35q0 -28 22 -46.5t56 -18.5q38 0 73 19.5t61 50.5zM600 387q-46 0 -81.5 -26.5t-51.5 -70.5h245q-7 46 -35.5 71.5t-76.5 25.5z" />
    <glyph glyph-name="f.ss02" horiz-adv-x="464" 
d="M246 375l-66 -375h-96l66 375h-120l15 85h120l14 80q15 85 67.5 132.5t140.5 47.5q24 0 50 -5.5t52 -17.5l-34 -84q-16 8 -33.5 12.5t-36.5 4.5q-51 0 -77.5 -28.5t-35.5 -78.5l-11 -63h190l-15 -85h-190z" />
    <glyph glyph-name="j.ss02" horiz-adv-x="294" 
d="M162 -70q-15 -85 -67.5 -132.5t-140.5 -47.5q-24 0 -50 6t-52 18l34 83q16 -8 33.5 -12.5t36.5 -4.5q51 0 77.5 28.5t35.5 78.5l90 513h96zM172 627q0 26 18 44.5t44 18.5t44.5 -18.5t18.5 -44.5t-18.5 -44t-44.5 -18t-44 18t-18 44z" />
    <glyph glyph-name="r.ss02" horiz-adv-x="395" 
d="M37 0l81 460h91l-9 -44q26 23 61 38.5t70 15.5q22 0 43.5 -4t42.5 -14l-33 -86q-11 6 -25.5 10t-29.5 4q-23 0 -44.5 -7t-40 -18t-34 -25.5t-25.5 -29.5l-52 -300h-96z" />
    <glyph glyph-name="t.ss02" horiz-adv-x="476" 
d="M398 15q-20 -12 -47.5 -18.5t-59.5 -6.5q-30 0 -59.5 9.5t-53 28t-37.5 46t-14 64.5q0 4 1 12.5t2 18.5t2.5 19.5t2.5 15.5l30 171h-120l15 85h120l23 130h96l-23 -130h200l-15 -85h-200l-32 -185q-3 -18 -5 -33t-2 -22q0 -30 20.5 -45t50.5 -15q24 0 42 6t32 13z" />
    <glyph glyph-name="uniFB00.ss02" horiz-adv-x="828" 
d="M610 375l-66 -375h-96l66 375h-268l-66 -375h-96l66 375h-120l15 85h120l14 80q15 85 67.5 132.5t140.5 47.5q24 0 50 -5.5t52 -17.5l-34 -84q-16 8 -33.5 12.5t-36.5 4.5q-51 0 -77.5 -28.5t-35.5 -78.5l-11 -63h268l14 80q15 85 67.5 132.5t140.5 47.5q24 0 50 -5.5
t52 -17.5l-34 -84q-16 8 -33.5 12.5t-36.5 4.5q-51 0 -77.5 -28.5t-35.5 -78.5l-11 -63h190l-15 -85h-190z" />
    <glyph glyph-name="fi.ss02" horiz-adv-x="660" 
d="M621 460l-81 -460h-96l66 375h-264l-66 -375h-96l66 375h-120l15 85h120l14 80q15 85 67.5 132.5t140.5 47.5q24 0 50 -6t52 -18l-34 -83q-16 8 -33.5 12.5t-36.5 4.5q-51 0 -77.5 -28.5t-35.5 -78.5l-11 -63h360zM538 627q0 26 18 44.5t44 18.5t44.5 -18.5t18.5 -44.5
t-18.5 -44t-44.5 -18t-44 18t-18 44z" />
    <glyph glyph-name="fl.ss02" horiz-adv-x="660" 
d="M444 0l66 375h-264l-66 -375h-96l66 375h-120l15 85h120l14 80q15 85 67.5 132.5t140.5 47.5q24 0 50 -6t52 -18l-34 -83q-16 8 -33.5 12.5t-36.5 4.5q-51 0 -77.5 -28.5t-35.5 -78.5l-11 -63h264l44 250h96l-125 -710h-96z" />
    <glyph glyph-name="uniFB03.ss02" horiz-adv-x="1024" 
d="M904 0h-96l66 375h-264l-66 -375h-96l66 375h-268l-66 -375h-96l66 375h-120l15 85h120l14 80q15 85 67.5 132.5t140.5 47.5q24 0 50 -5.5t52 -17.5l-34 -84q-16 8 -33.5 12.5t-36.5 4.5q-51 0 -77.5 -28.5t-35.5 -78.5l-11 -63h268l14 80q15 85 67.5 132.5t140.5 47.5
q24 0 50 -5.5t52 -17.5l-34 -84q-16 8 -33.5 12.5t-36.5 4.5q-51 0 -77.5 -28.5t-35.5 -78.5l-11 -63h360zM902 627q0 26 18 44.5t44 18.5t44.5 -18.5t18.5 -44.5t-18.5 -44t-44.5 -18t-44 18t-18 44z" />
    <glyph glyph-name="uniFB04.ss02" horiz-adv-x="1024" 
d="M808 0l66 375h-264l-66 -375h-96l66 375h-268l-66 -375h-96l66 375h-120l15 85h120l14 80q15 85 67.5 132.5t140.5 47.5q24 0 50 -5.5t52 -17.5l-34 -84q-16 8 -33.5 12.5t-36.5 4.5q-51 0 -77.5 -28.5t-35.5 -78.5l-11 -63h268l14 80q15 85 67.5 132.5t140.5 47.5
q24 0 50 -5.5t52 -17.5l-34 -84q-16 8 -33.5 12.5t-36.5 4.5q-51 0 -77.5 -28.5t-35.5 -78.5l-11 -63h264l44 250h96l-125 -710h-96z" />
    <glyph glyph-name="parenleft.ss03" horiz-adv-x="450" 
d="M409 662q-64 -92 -101 -196.5t-37 -218.5q0 -56 8.5 -112t25.5 -108l-87 -37q-20 60 -31 125t-11 132q0 131 40.5 246t111.5 217z" />
    <glyph glyph-name="parenright.ss03" horiz-adv-x="450" 
d="M81 38q64 92 101 196.5t37 218.5q0 56 -8.5 112t-25.5 108l87 37q20 -60 31 -125t11 -132q0 -131 -40.5 -246t-111.5 -217z" />
    <glyph glyph-name="bracketleft.ss03" horiz-adv-x="450" 
d="M245 700h251l-16 -90h-155l-92 -520h155l-16 -90h-251z" />
    <glyph glyph-name="bracketright.ss03" horiz-adv-x="450" 
d="M244 0h-251l16 90h155l92 520h-155l16 90h251z" />
    <glyph glyph-name="braceleft.ss03" horiz-adv-x="450" 
d="M308 539q-3 -16 -3 -40.5t-5 -50.5q-8 -45 -28 -69t-50 -41q16 -12 27.5 -31t11.5 -51q0 -11 -3.5 -27t-7 -32.5t-7 -32t-3.5 -26.5q0 -26 21 -37t54 -11h20l-16 -89q-5 -1 -8.5 -1h-8.5q-23 2 -47 5.5t-45 15.5q-29 16 -47 44.5t-18 64.5q0 18 3.5 35.5t8 35t8 33.5
t3.5 30q0 31 -19 43t-51 13l11 60q42 0 62 13.5t30 51.5q3 10 4.5 24.5t3 29.5t2.5 27.5t2 19.5q7 43 23.5 72.5t41 47.5t57.5 26t73 8h18t15 -1l-16 -89h-16q-39 0 -66 -16t-35 -55z" />
    <glyph glyph-name="bar.ss03" horiz-adv-x="257" 
d="M166 700h96l-124 -700h-96z" />
    <glyph glyph-name="braceright.ss03" horiz-adv-x="450" 
d="M183 161q3 16 3 40.5t5 50.5q8 45 28 69t50 41q-16 12 -27.5 31t-11.5 51q0 11 3.5 26.5t7 32t7 32.5t3.5 27q0 26 -21 37t-54 11h-20l16 89q5 1 8.5 1h8.5q23 -2 47 -5.5t45 -15.5q29 -16 47 -44.5t18 -64.5q0 -18 -3.5 -36t-8 -35t-8 -33t-3.5 -30q0 -31 19 -43t51 -13
l-11 -60q-42 0 -62 -13.5t-30 -51.5q-3 -10 -4.5 -24.5t-3 -29.5t-2.5 -27.5t-2 -19.5q-7 -43 -23.5 -72.5t-41 -47.5t-57.5 -26t-73 -8h-18t-15 1l16 89h16q39 0 66 16t35 55z" />
    <glyph glyph-name="endash.ss04" horiz-adv-x="1083" 
d="M1072 295l-14 -80h-1040l14 80h1040z" />
    <glyph glyph-name="emdash.ss04" horiz-adv-x="1383" 
d="M1372 295l-14 -80h-1340l14 80h1340z" />
    <glyph glyph-name="endash.case.ss04" horiz-adv-x="1084" 
d="M1094 420l-14 -80h-1040l14 80h1040z" />
    <glyph glyph-name="emdash.case.ss04" horiz-adv-x="1384" 
d="M1394 420l-14 -80h-1340l14 80h1340z" />
    <glyph glyph-name="asterisk.ss05" horiz-adv-x="500" 
d="M238 424l-121 -65l-38 71l134 72l-108 70l43 67l115 -74l24 135h81l-24 -135l121 65l37 -71l-133 -72l108 -71l-43 -66l-115 74l-25 -145h-82z" />
    <glyph glyph-name="asterisk.ss06" horiz-adv-x="500" 
d="M238 430l-142 -46l-24 76l163 53l-72 124l69 39l68 -116l105 116l59 -54l-105 -115l136 -48l-26 -75l-149 51l-27 -156h-81z" />
    <glyph glyph-name="asterisk.ss07" horiz-adv-x="500" 
d="M513 530l-14 -80h-147l53 -126l-73 -31l-51 119l-94 -119l-63 49l85 108h-137l14 80h137l-53 126l73 31l51 -119l94 119l63 -49l-85 -108h147z" />
    <glyph glyph-name="asterisk.ss08" horiz-adv-x="500" 
d="M353 450l14 80h146l-14 -80h-146zM124 342l84 107l72 -38l-93 -118zM367 531l-73 37l94 119l63 -49zM86 530h136l-14 -80h-136zM281 411l71 37l53 -124l-73 -31zM243 687l50 -118l-71 -38l-52 125z" />
    <glyph glyph-name="asterisk.ss09" horiz-adv-x="500" 
d="M327 450l14 80h172l-14 -80h-172zM86 530h172l-14 -80h-172zM340 531h-81l30 169h81zM215 280l30 169h81l-30 -169h-81zM363 600l90 76l50 -60l-89 -76zM222 380l-90 -76l-50 60l89 76zM190 676l68 -83l-61 -51l-69 83zM395 304l-68 83l61 51l69 -83z" />
    <glyph glyph-name="f_f_i.ss02" horiz-adv-x="1024" 
d="M904 0h-96l66 375h-264l-66 -375h-96l66 375h-268l-66 -375h-96l66 375h-120l15 85h120l14 80q15 85 67.5 132.5t140.5 47.5q24 0 50 -5.5t52 -17.5l-34 -84q-16 8 -33.5 12.5t-36.5 4.5q-51 0 -77.5 -28.5t-35.5 -78.5l-11 -63h268l14 80q15 85 67.5 132.5t140.5 47.5
q24 0 50 -5.5t52 -17.5l-34 -84q-16 8 -33.5 12.5t-36.5 4.5q-51 0 -77.5 -28.5t-35.5 -78.5l-11 -63h360zM902 627q0 26 18 44.5t44 18.5t44.5 -18.5t18.5 -44.5t-18.5 -44t-44.5 -18t-44 18t-18 44z" />
    <glyph glyph-name="f_f.ss02" horiz-adv-x="828" 
d="M610 375l-66 -375h-96l66 375h-268l-66 -375h-96l66 375h-120l15 85h120l14 80q15 85 67.5 132.5t140.5 47.5q24 0 50 -5.5t52 -17.5l-34 -84q-16 8 -33.5 12.5t-36.5 4.5q-51 0 -77.5 -28.5t-35.5 -78.5l-11 -63h268l14 80q15 85 67.5 132.5t140.5 47.5q24 0 50 -5.5
t52 -17.5l-34 -84q-16 8 -33.5 12.5t-36.5 4.5q-51 0 -77.5 -28.5t-35.5 -78.5l-11 -63h190l-15 -85h-190z" />
    <glyph glyph-name="f_l.ss02" horiz-adv-x="660" 
d="M444 0l66 375h-264l-66 -375h-96l66 375h-120l15 85h120l14 80q15 85 67.5 132.5t140.5 47.5q24 0 50 -6t52 -18l-34 -83q-16 8 -33.5 12.5t-36.5 4.5q-51 0 -77.5 -28.5t-35.5 -78.5l-11 -63h264l44 250h96l-125 -710h-96z" />
    <glyph glyph-name="f_i.ss02" horiz-adv-x="660" 
d="M621 460l-81 -460h-96l66 375h-264l-66 -375h-96l66 375h-120l15 85h120l14 80q15 85 67.5 132.5t140.5 47.5q24 0 50 -6t52 -18l-34 -83q-16 8 -33.5 12.5t-36.5 4.5q-51 0 -77.5 -28.5t-35.5 -78.5l-11 -63h360zM538 627q0 26 18 44.5t44 18.5t44.5 -18.5t18.5 -44.5
t-18.5 -44t-44.5 -18t-44 18t-18 44z" />
    <glyph glyph-name="f_f_l.ss02" horiz-adv-x="1024" 
d="M808 0l66 375h-264l-66 -375h-96l66 375h-268l-66 -375h-96l66 375h-120l15 85h120l14 80q15 85 67.5 132.5t140.5 47.5q24 0 50 -5.5t52 -17.5l-34 -84q-16 8 -33.5 12.5t-36.5 4.5q-51 0 -77.5 -28.5t-35.5 -78.5l-11 -63h268l14 80q15 85 67.5 132.5t140.5 47.5
q24 0 50 -5.5t52 -17.5l-34 -84q-16 8 -33.5 12.5t-36.5 4.5q-51 0 -77.5 -28.5t-35.5 -78.5l-11 -63h264l44 250h96l-125 -710h-96z" />
    <glyph glyph-name="uni00AD.case" horiz-adv-x="454" 
d="M404 390l-14 -80h-290l14 80h290z" />
    <glyph glyph-name="space.frac" horiz-adv-x="55" 
 />
    <glyph glyph-name="uni2007.tf" 
 />
    <glyph glyph-name="uni2007" unicode="&#x2007;" horiz-adv-x="602" 
 />
    <glyph glyph-name="uni2008" unicode="&#x2008;" horiz-adv-x="340" 
 />
    <glyph glyph-name="uni200B" unicode="&#x200b;" horiz-adv-x="0" 
 />
    </font>
</defs>
</svg>
