<?xml version="1.0" standalone="no"?>
<!DOCTYPE svg PUBLIC "-//W3C//DTD SVG 1.1//EN" "http://www.w3.org/Graphics/SVG/1.1/DTD/svg11.dtd" >
<svg>
<metadata>
Created by FontForge 20120731 at Tue Apr 29 20:02:59 2014

Copyright (c) 2011 by Aurele Sack. www.lineto.com. All rights reserved.
</metadata>
<defs>
<font id="lineto-brown-regular" horiz-adv-x="590" >
  <font-face 
    font-family="Brown Regular"
    font-weight="400"
    font-stretch="normal"
    units-per-em="1000"
    panose-1="2 0 0 0 0 0 0 0 0 0"
    ascent="750"
    descent="-250"
    x-height="470"
    cap-height="700"
    bbox="-85 -250 1370 930"
    underline-thickness="80"
    underline-position="-20"
    unicode-range="U+0020-FB04"
  />
<missing-glyph horiz-adv-x="539" 
d="M75 700h389v-700h-389v700zM170 90h199v520h-199v-520z" />
    <glyph glyph-name="f_f_l" unicode="ffl" horiz-adv-x="1015" 
d="M705 626q-5 2 -15 3t-20 1q-20 0 -40 -8.5t-32 -24.5q-10 -13 -14 -32.5t-4 -51.5v-43h255v240h95v-710h-95v385h-255v-385h-95v385h-255v-385h-95v385h-110v85h110v40q0 48 7 78.5t23 53.5q26 37 66 57.5t88 20.5q15 0 30.5 -2t25.5 -5l-20 -87q-5 2 -15 3t-20 1
q-20 0 -40 -8.5t-32 -24.5q-10 -13 -14 -32.5t-4 -51.5v-43h255v40q0 48 7 78.5t23 53.5q26 37 66 57.5t88 20.5q15 0 30.5 -2t25.5 -5z" />
    <glyph glyph-name="f_f" unicode="ff" horiz-adv-x="755" 
d="M705 626q-5 2 -15 3t-20 1q-20 0 -40 -8.5t-32 -24.5q-10 -13 -14 -32.5t-4 -51.5v-43h145v-85h-145v-385h-95v385h-255v-385h-95v385h-110v85h110v40q0 48 7 78.5t23 53.5q26 37 66 57.5t88 20.5q15 0 30.5 -2t25.5 -5l-20 -87q-5 2 -15 3t-20 1q-20 0 -40 -8.5
t-32 -24.5q-10 -13 -14 -32.5t-4 -51.5v-43h255v40q0 48 7 78.5t23 53.5q26 37 66 57.5t88 20.5q15 0 30.5 -2t25.5 -5z" />
    <glyph glyph-name="f_f_i" unicode="ffi" horiz-adv-x="1015" 
d="M705 626q-5 2 -15 3t-20 1q-20 0 -40 -8.5t-32 -24.5q-10 -13 -14 -32.5t-4 -51.5v-43h350v-470h-95v385h-255v-385h-95v385h-255v-385h-95v385h-110v85h110v40q0 48 7 78.5t23 53.5q26 37 66 57.5t88 20.5q15 0 30.5 -2t25.5 -5l-20 -87q-5 2 -15 3t-20 1
q-20 0 -40 -8.5t-32 -24.5q-10 -13 -14 -32.5t-4 -51.5v-43h255v40q0 48 7 78.5t23 53.5q26 37 66 57.5t88 20.5q15 0 30.5 -2t25.5 -5zM820 647q0 26 18 44.5t44 18.5t44.5 -18.5t18.5 -44.5t-18.5 -44t-44.5 -18t-44 18t-18 44z" />
    <glyph glyph-name="f_i" unicode="fi" horiz-adv-x="665" 
d="M470 647q0 26 18 44.5t44 18.5t44.5 -18.5t18.5 -44.5t-18.5 -44t-44.5 -18t-44 18t-18 44zM135 510q0 48 7 78.5t23 53.5q26 37 66 57.5t88 20.5q15 0 30.5 -2t25.5 -5l-20 -87q-5 2 -15 3t-20 1q-20 0 -40 -8.5t-32 -24.5q-10 -13 -14 -32.5t-4 -51.5v-43h350v-470h-95
v385h-255v-385h-95v385h-110v85h110v40z" />
    <glyph glyph-name="f_l" unicode="fl" horiz-adv-x="665" 
d="M135 510q0 48 7 78.5t23 53.5q26 37 66 57.5t88 20.5q15 0 30.5 -2t25.5 -5l-20 -87q-5 2 -15 3t-20 1q-20 0 -40 -8.5t-32 -24.5q-10 -13 -14 -32.5t-4 -51.5v-43h255v240h95v-710h-95v385h-255v-385h-95v385h-110v85h110v40z" />
    <glyph glyph-name=".notdef" horiz-adv-x="539" 
d="M75 700h389v-700h-389v700zM170 90h199v520h-199v-520z" />
    <glyph glyph-name=".null" horiz-adv-x="0" 
 />
    <glyph glyph-name="uni000D" horiz-adv-x="270" 
 />
    <glyph glyph-name="space" unicode=" " horiz-adv-x="270" 
 />
    <glyph glyph-name="exclam" unicode="!" horiz-adv-x="340" 
d="M123 470v230h95v-230l-15 -250h-65zM100 60q0 29 20.5 49.5t49.5 20.5t49.5 -20.5t20.5 -49.5t-20.5 -49.5t-49.5 -20.5t-49.5 20.5t-20.5 49.5z" />
    <glyph glyph-name="quotedbl" unicode="&#x22;" horiz-adv-x="460" 
d="M80 700h95l-15 -250h-65zM285 700h95l-15 -250h-65z" />
    <glyph glyph-name="numbersign" unicode="#" horiz-adv-x="580" 
d="M410 195l-53 -195h-93l53 195h-137l-53 -195h-93l53 195h-102v90h126l34 130h-103v90h127l53 195h93l-53 -195h137l53 195h93l-53 -195h103v-90h-127l-34 -130h103v-90h-127zM204 285h137l34 130h-137z" />
    <glyph glyph-name="dollar" unicode="$" horiz-adv-x="532" 
d="M270 85q24 0 46.5 7.5t39 21.5t26.5 33t10 43q0 40 -24.5 64.5t-61 42.5t-78.5 34t-77 39q-38 25 -63.5 62t-25.5 92q0 33 12 63t33.5 54t52 40.5t67.5 23.5v110h95v-109q48 -8 82.5 -27.5t57.5 -38.5l-59 -73q-57 48 -125 48q-22 0 -42.5 -6t-37 -18t-26.5 -29.5
t-10 -40.5q0 -33 24.5 -55t61 -39.5t78 -34.5t75.5 -39q18 -12 34 -27t29 -34.5t20.5 -44t7.5 -54.5q0 -40 -13 -73.5t-35.5 -59t-53.5 -42.5t-68 -24v-109h-95v109q-58 8 -108.5 36.5t-88.5 76.5l69 68q31 -38 74 -64t97 -26z" />
    <glyph glyph-name="percent" unicode="%" horiz-adv-x="945" 
d="M220 0l409 700h96l-409 -700h-96zM420 525q0 -38 -13.5 -72t-37.5 -59t-57 -39.5t-72 -14.5t-72 14.5t-57 39.5t-37.5 59t-13.5 72t13.5 72t37.5 59t57 39.5t72 14.5t72 -14.5t57 -39.5t37.5 -59t13.5 -72zM150 525q0 -42 24 -71t66 -29t66 29t24 71t-24 71t-66 29
t-66 -29t-24 -71zM885 175q0 -38 -13.5 -72t-37.5 -59t-57 -39.5t-72 -14.5t-72 14.5t-57 39.5t-37.5 59t-13.5 72t13.5 72t37.5 59t57 39.5t72 14.5t72 -14.5t57 -39.5t37.5 -59t13.5 -72zM615 175q0 -42 24 -71t66 -29t66 29t24 71t-24 71t-66 29t-66 -29t-24 -71z" />
    <glyph glyph-name="ampersand" unicode="&#x26;" horiz-adv-x="655" 
d="M685 0h-128l-71 70q-39 -37 -92 -58.5t-118 -21.5q-52 0 -97 15t-78 43t-52 67.5t-19 88.5q0 37 10 66.5t27 54t39 44.5t46 38q-33 35 -55 69.5t-22 76.5q0 31 11.5 59.5t33 50.5t51 34.5t65.5 12.5q30 0 58.5 -11t50.5 -31.5t35.5 -49.5t13.5 -65q0 -56 -29.5 -94.5
t-69.5 -69.5l175 -175q15 39 15 84q0 48 -7 78t-11 41l90 25q5 -13 14 -50.5t9 -93.5q0 -42 -10 -81t-29 -74zM125 204q0 -27 11 -50t31.5 -39.5t48 -25.5t60.5 -9q44 0 80.5 15t63.5 41l-204 205q-38 -26 -64.5 -59t-26.5 -78zM299 553q0 28 -18.5 47.5t-44.5 19.5
q-32 0 -49 -20.5t-17 -46.5q0 -25 18.5 -51t39.5 -48q31 23 51 46.5t20 52.5z" />
    <glyph glyph-name="quotesingle" unicode="'" horiz-adv-x="255" 
d="M80 700h95l-15 -250h-65z" />
    <glyph glyph-name="parenleft" unicode="(" horiz-adv-x="445" 
d="M245 250q0 -114 34.5 -217.5t95.5 -189.5l-77 -53q-70 98 -109 214t-39 246t39 246t109 214l77 -53q-61 -86 -95.5 -189.5t-34.5 -217.5z" />
    <glyph glyph-name="parenright" unicode=")" horiz-adv-x="445" 
d="M200 250q0 114 -34.5 217.5t-95.5 189.5l77 53q70 -98 109 -214t39 -246t-39 -246t-109 -214l-77 53q61 86 95.5 189.5t34.5 217.5z" />
    <glyph glyph-name="asterisk" unicode="*" horiz-adv-x="500" 
d="M64 593l146 -47v154h80v-153l146 48l25 -76l-147 -48l91 -124l-64 -47l-91 125l-90 -125l-64 46l90 125l-146 47z" />
    <glyph glyph-name="plus" unicode="+" horiz-adv-x="540" 
d="M225 305v175h90v-175h175v-90h-175v-175h-90v175h-175v90h175z" />
    <glyph glyph-name="comma" unicode="," horiz-adv-x="340" 
d="M230 120l-120 -260h-65l75 260h110z" />
    <glyph glyph-name="hyphen" unicode="-" horiz-adv-x="460" 
d="M380 295v-80h-300v80h300z" />
    <glyph glyph-name="period" unicode="." horiz-adv-x="340" 
d="M110 60q0 29 20.5 49.5t49.5 20.5t49.5 -20.5t20.5 -49.5t-20.5 -49.5t-49.5 -20.5t-49.5 20.5t-20.5 49.5z" />
    <glyph glyph-name="slash" unicode="/" horiz-adv-x="435" 
d="M5 0l326 700h99l-326 -700h-99z" />
    <glyph glyph-name="zero" unicode="0" 
d="M435 350q0 52 -6.5 100t-22.5 85t-43 58.5t-68 21.5t-68 -21.5t-43 -58.5t-22.5 -85t-6.5 -100q0 -53 6.5 -100.5t22.5 -84.5t43 -58.5t68 -21.5t68 21.5t43 58.5t22.5 84.5t6.5 100.5zM55 350q0 75 13 140.5t41.5 114t74 77t111.5 28.5t111.5 -28.5t74 -77t41.5 -114
t13 -140.5t-13 -140.5t-41.5 -114t-74 -77t-111.5 -28.5t-111.5 28.5t-74 77t-41.5 114t-13 140.5z" />
    <glyph glyph-name="one" unicode="1" horiz-adv-x="405" 
d="M50 507v99l165 94h70v-700h-100v575z" />
    <glyph glyph-name="two" unicode="2" horiz-adv-x="520" 
d="M36 551q14 49 39 80.5t54.5 48.5t59.5 23.5t53 6.5q46 0 85 -17t67.5 -45.5t44.5 -67t16 -81.5q0 -61 -26.5 -111t-64.5 -94l-176 -199h267v-95h-420v65l239 273q41 47 61 82t20 79q0 22 -8 43t-22.5 37.5t-35 26t-45.5 9.5q-48 0 -76.5 -26t-42.5 -67z" />
    <glyph glyph-name="three" unicode="3" horiz-adv-x="540" 
d="M108 158q17 -33 52.5 -53t79.5 -20q30 0 56 11t46 30t31.5 45.5t11.5 58.5q0 31 -11 58t-31.5 46t-48 30t-60.5 11q-29 0 -51 -4.5t-30 -6.5v65l149 176h-242v95h390v-65l-154 -177q40 -6 74.5 -26t60 -50t40 -69t14.5 -83q0 -52 -19 -96t-51.5 -76t-76 -50t-92.5 -18
q-72 0 -131 30.5t-90 89.5z" />
    <glyph glyph-name="four" unicode="4" horiz-adv-x="565" 
d="M15 235l360 465h70v-435h110v-95h-110v-170h-100v170h-330v65zM345 265v236l-188 -236h188z" />
    <glyph glyph-name="five" unicode="5" horiz-adv-x="550" 
d="M200 605l-20 -147q16 5 32.5 8.5t33.5 3.5q51 0 95 -19t76 -52t50 -76.5t18 -92.5t-18 -92.5t-50 -76.5t-76 -52t-96 -19q-65 0 -119 27t-86 73l76 59q20 -26 54 -45t76 -19q31 0 57 11.5t44 31.5t28 46t10 56t-10 56t-28.5 46t-45 31.5t-58.5 11.5t-59 -11t-47 -29
l-69 10l50 355h328v-95h-246z" />
    <glyph glyph-name="six" unicode="6" horiz-adv-x="585" 
d="M189 338q-18 -28 -26.5 -53t-8.5 -55q0 -31 11 -57.5t30 -46t45.5 -30.5t56.5 -11q31 0 57.5 11.5t45.5 31t29.5 45.5t10.5 55q0 30 -10.5 56.5t-29.5 46.5t-44.5 32t-56.5 12q-34 0 -62.5 -9.5t-47.5 -27.5zM270 465q10 2 19.5 2h18.5q48 0 90 -18t73.5 -50t50 -75
t18.5 -94q0 -50 -18.5 -94t-50.5 -76.5t-77 -51t-97 -18.5q-53 0 -97.5 18.5t-76.5 51t-50 75.5t-18 92q0 25 4.5 50.5t18.5 56.5q11 24 28 53t38 61l166 252h113z" />
    <glyph glyph-name="seven" unicode="7" horiz-adv-x="520" 
d="M65 0l300 605h-320v95h440v-65l-313 -635h-107z" />
    <glyph glyph-name="eight" unicode="8" horiz-adv-x="580" 
d="M290 -10q-51 0 -94.5 17.5t-76 47.5t-51 70.5t-18.5 86.5q0 60 31.5 108.5t79.5 74.5q-29 20 -47.5 56t-18.5 74t15 72t41 59t61.5 39.5t77.5 14.5t77.5 -14.5t61.5 -39.5t41 -59t15 -72t-18.5 -74t-47.5 -56q48 -26 79.5 -74.5t31.5 -108.5q0 -46 -18.5 -86.5t-51 -70.5
t-76 -47.5t-94.5 -17.5zM290 340q-30 0 -55.5 -10t-44.5 -27.5t-29.5 -40.5t-10.5 -50t10.5 -50t29.5 -40t44.5 -27t55.5 -10t55.5 10t44.5 27t29.5 40t10.5 50t-10.5 50t-29.5 40.5t-44.5 27.5t-55.5 10zM290 615q-42 0 -68.5 -26t-26.5 -64t26.5 -64t68.5 -26t68.5 26
t26.5 64t-26.5 64t-68.5 26z" />
    <glyph glyph-name="nine" unicode="9" horiz-adv-x="585" 
d="M396 362q18 28 26.5 53t8.5 55q0 31 -11 57.5t-30 46t-45.5 30.5t-56.5 11q-32 0 -58 -11.5t-45 -31t-29.5 -45.5t-10.5 -55q0 -30 10.5 -56.5t29 -46.5t44.5 -32t57 -12q34 0 62.5 9.5t47.5 27.5zM315 235q-10 -2 -19.5 -2h-18.5q-48 0 -90.5 18t-74 50t-49.5 75t-18 94
q0 50 18.5 94t50.5 76.5t76.5 51t97.5 18.5t97.5 -18.5t76.5 -51t50 -75.5t18 -92q0 -25 -4.5 -50.5t-18.5 -56.5q-11 -24 -28 -53t-38 -61l-166 -252h-113z" />
    <glyph glyph-name="colon" unicode=":" horiz-adv-x="340" 
d="M110 410q0 29 20.5 49.5t49.5 20.5t49.5 -20.5t20.5 -49.5t-20.5 -49.5t-49.5 -20.5t-49.5 20.5t-20.5 49.5zM110 60q0 29 20.5 49.5t49.5 20.5t49.5 -20.5t20.5 -49.5t-20.5 -49.5t-49.5 -20.5t-49.5 20.5t-20.5 49.5z" />
    <glyph glyph-name="semicolon" unicode=";" horiz-adv-x="340" 
d="M110 410q0 29 20.5 49.5t49.5 20.5t49.5 -20.5t20.5 -49.5t-20.5 -49.5t-49.5 -20.5t-49.5 20.5t-20.5 49.5zM230 120l-120 -260h-65l75 260h110z" />
    <glyph glyph-name="less" unicode="&#x3c;" horiz-adv-x="545" 
d="M490 140v-98l-440 188v60l440 188v-98l-281 -120z" />
    <glyph glyph-name="equal" unicode="=" horiz-adv-x="540" 
d="M490 395v-90h-440v90h440zM490 215v-90h-440v90h440z" />
    <glyph glyph-name="greater" unicode="&#x3e;" horiz-adv-x="545" 
d="M336 260l-281 120v98l440 -188v-60l-440 -188v98z" />
    <glyph glyph-name="question" unicode="?" horiz-adv-x="500" 
d="M65 570q7 30 25.5 56t45 44.5t59.5 29t69 10.5q42 0 78 -14.5t62.5 -39t41 -58t14.5 -70.5q0 -39 -13 -68.5t-32 -53.5t-42 -42t-42 -33t-32 -28t-13 -26q0 -19 26 -42l-63 -66q-31 23 -44.5 51t-13.5 56q0 31 13 54t32 42t42 36t42 34.5t32 38t13 47.5q0 38 -28 65
t-73 27q-40 0 -70.5 -22t-38.5 -54zM190 60q0 29 20.5 49.5t49.5 20.5t49.5 -20.5t20.5 -49.5t-20.5 -49.5t-49.5 -20.5t-49.5 20.5t-20.5 49.5z" />
    <glyph glyph-name="at" unicode="@" horiz-adv-x="1000" 
d="M591 335q-17 18 -41 31.5t-62 13.5q-22 0 -43.5 -8t-39 -24t-28 -40.5t-10.5 -57.5t10.5 -57.5t28 -40.5t39.5 -24t45 -8q36 0 60 16.5t41 33.5v165zM760 -106q-52 -40 -116.5 -62t-136.5 -22q-91 0 -170.5 34.5t-139 94.5t-93.5 140t-34 171t34 171t93.5 140t139 94.5
t170.5 34.5q88 0 165 -29t134.5 -81.5t90.5 -126.5t33 -163q0 -51 -11.5 -97t-35.5 -81.5t-60 -56t-85 -20.5q-42 0 -73 15.5t-51 43.5q-7 -9 -19 -19.5t-29 -19t-39.5 -14.5t-50.5 -6q-37 0 -72.5 14t-63.5 41.5t-45.5 67.5t-17.5 92t17.5 92.5t46 67.5t64.5 41t74 14
q47 0 75 -15.5t42 -28.5v34h85v-243q0 -17 1.5 -33.5t8.5 -28.5q8 -13 21 -21.5t33 -8.5q47 0 72 47t25 125q0 68 -25.5 125.5t-70.5 99t-106 65t-133 23.5t-135 -28t-110.5 -76t-74.5 -113t-27 -138q0 -74 27 -138.5t74.5 -112.5t110.5 -76t135 -28q58 0 110 18.5t96 50.5z
" />
    <glyph glyph-name="A" unicode="A" horiz-adv-x="660" 
d="M477 180h-295l-73 -180h-104l290 700h70l290 -700h-104zM222 275h216l-108 260z" />
    <glyph glyph-name="B" unicode="B" horiz-adv-x="625" 
d="M342 95q48 0 73 9.5t42 26.5q15 16 24 37t9 45t-9 44.5t-24 36.5q-17 17 -42 26.5t-73 9.5h-152v-235h152zM310 425q42 0 63 7.5t33 21.5q24 26 24 61t-24 61q-12 14 -33 21.5t-63 7.5h-120v-180h120zM90 0v700h238q51 0 85 -13t59 -36q27 -25 42.5 -59.5t15.5 -73.5
q0 -36 -15 -69t-40 -56q50 -25 82.5 -74.5t32.5 -109.5q0 -49 -21 -91t-56 -71q-27 -23 -63 -35t-90 -12h-270z" />
    <glyph glyph-name="C" unicode="C" horiz-adv-x="690" 
d="M35 350q0 76 27 141.5t74.5 114t112 76.5t140.5 28q75 0 142.5 -28.5t113.5 -79.5l-67 -66q-31 34 -81.5 56.5t-107.5 22.5q-54 0 -100 -20t-80.5 -55.5t-54 -84t-19.5 -105.5q0 -59 20 -108t55.5 -84t83.5 -54t104 -19q35 0 65.5 9t55.5 23t45 31.5t35 35.5l71 -64
q-23 -29 -53 -53t-65 -41t-74.5 -26.5t-79.5 -9.5q-78 0 -144.5 27t-115 75t-76 114t-27.5 144z" />
    <glyph glyph-name="D" unicode="D" horiz-adv-x="715" 
d="M580 350q0 59 -22.5 110t-62.5 86q-33 29 -79.5 44t-120.5 15h-105v-510h105q74 0 120.5 15t79.5 44q40 35 62.5 86t22.5 110zM90 0v700h210q84 0 140.5 -17t99.5 -49q65 -48 102.5 -122t37.5 -162t-37 -162t-102 -122q-43 -32 -100 -49t-141 -17h-210z" />
    <glyph glyph-name="E" unicode="E" horiz-adv-x="540" 
d="M420 425v-95h-230v-235h310v-95h-410v700h400v-95h-300v-180h230z" />
    <glyph glyph-name="F" unicode="F" horiz-adv-x="510" 
d="M420 425v-95h-230v-330h-100v700h400v-95h-300v-180h230z" />
    <glyph glyph-name="G" unicode="G" horiz-adv-x="735" 
d="M670 120q-23 -29 -53 -52.5t-65 -41t-74.5 -27t-79.5 -9.5q-78 0 -144.5 27t-115 75t-76 114t-27.5 144q0 76 27 141.5t74.5 114t112 76.5t140.5 28q75 0 142.5 -28.5t113.5 -79.5l-67 -66q-31 34 -81.5 56.5t-107.5 22.5q-54 0 -100 -20t-80.5 -55.5t-54 -84
t-19.5 -105.5q0 -59 20 -108t55.5 -84t83.5 -54t104 -19t100 18.5t72 46.5v180h-200v95h300v-305z" />
    <glyph glyph-name="H" unicode="H" horiz-adv-x="770" 
d="M580 330h-390v-330h-100v700h100v-275h390v275h100v-700h-100v330z" />
    <glyph glyph-name="I" unicode="I" horiz-adv-x="280" 
d="M90 700h100v-700h-100v700z" />
    <glyph glyph-name="J" unicode="J" horiz-adv-x="460" 
d="M89 141q12 -26 36.5 -41t56.5 -15q23 0 44.5 11t34.5 28q9 12 14 29.5t5 49.5v497h100v-490q0 -42 -6 -69.5t-18 -49.5q-26 -45 -72 -73t-102 -28q-61 0 -110 29.5t-72 83.5z" />
    <glyph glyph-name="K" unicode="K" horiz-adv-x="650" 
d="M90 700h100v-295l288 295h132l-316 -325l336 -375h-128l-312 350v-350h-100v700z" />
    <glyph glyph-name="L" unicode="L" horiz-adv-x="520" 
d="M190 95h310v-95h-410v700h100v-605z" />
    <glyph glyph-name="M" unicode="M" horiz-adv-x="860" 
d="M465 150h-70l-205 321v-471h-100v700h70l270 -427l270 427h70v-700h-100v471z" />
    <glyph glyph-name="N" unicode="N" horiz-adv-x="770" 
d="M190 514v-514h-100v700h70l420 -514v514h100v-700h-70z" />
    <glyph glyph-name="O" unicode="O" horiz-adv-x="770" 
d="M35 350q0 76 27 142t74 114.5t111 76t138 27.5t138 -27.5t111 -76t74 -114.5t27 -142q0 -77 -27 -142.5t-74 -114t-111 -76t-138 -27.5t-138 27.5t-111 76t-74 114t-27 142.5zM135 350q0 -57 19 -105.5t52.5 -84t79 -55.5t99.5 -20t99.5 20t79 55.5t52.5 84t19 105.5
t-19 105.5t-52.5 84t-79 55.5t-99.5 20t-99.5 -20t-79 -55.5t-52.5 -84t-19 -105.5z" />
    <glyph glyph-name="P" unicode="P" horiz-adv-x="600" 
d="M350 405q36 0 57 8.5t35 22.5q13 14 20.5 31.5t7.5 37.5t-7.5 37.5t-20.5 31.5q-14 14 -35 22.5t-57 8.5h-160v-200h160zM190 310v-310h-100v700h265q51 0 85.5 -12t60.5 -34q32 -27 50.5 -65.5t18.5 -83.5t-18.5 -83.5t-50.5 -65.5q-26 -22 -60.5 -34t-85.5 -12h-165z
" />
    <glyph glyph-name="Q" unicode="Q" horiz-adv-x="775" 
d="M35 350q0 76 27 142t74 114.5t111 76t138 27.5t138 -27.5t111 -76t74 -114.5t27 -142q0 -69 -22 -129t-61 -108l103 -113h-124l-47 51q-42 -29 -92 -45t-107 -16q-74 0 -138 27.5t-111 76t-74 114t-27 142.5zM135 350q0 -57 19 -105.5t52.5 -84t79 -55.5t99.5 -20
q38 0 71.5 10t62.5 28l-168 187l70 60l164 -183q23 33 36.5 74t13.5 89q0 57 -19 105.5t-52.5 84t-79 55.5t-99.5 20t-99.5 -20t-79 -55.5t-52.5 -84t-19 -105.5z" />
    <glyph glyph-name="R" unicode="R" horiz-adv-x="640" 
d="M190 330v-330h-100v700h245q48 0 80 -10.5t56 -30.5q32 -26 50.5 -63t18.5 -81t-18.5 -81t-50.5 -63q-17 -14 -36.5 -23t-45.5 -14l251 -334h-121l-249 330h-80zM330 425q34 0 53 7t31 19q26 26 26 64q0 19 -7 35.5t-19 28.5t-31 19t-53 7h-140v-180h140z" />
    <glyph glyph-name="S" unicode="S" horiz-adv-x="532" 
d="M99 175q31 -38 74 -64t97 -26q24 0 46.5 7.5t39 21.5t26.5 33t10 43q0 40 -24.5 64.5t-61 42.5t-78.5 34t-77 39q-38 25 -63.5 62t-25.5 92q0 38 16 72t44.5 59.5t67 40t84.5 14.5q33 0 61.5 -6.5t52 -17t42 -22.5t32.5 -24l-59 -73q-57 48 -125 48q-22 0 -42.5 -6
t-37 -18t-26.5 -29.5t-10 -40.5q0 -33 24.5 -55t61 -39.5t78 -34.5t75.5 -39q18 -12 34 -27t29 -34.5t20.5 -44t7.5 -54.5q0 -46 -17 -83.5t-46 -64t-68.5 -41t-85.5 -14.5q-72 0 -135 30t-110 87z" />
    <glyph glyph-name="T" unicode="T" horiz-adv-x="510" 
d="M15 700h480v-95h-190v-605h-100v605h-190v95z" />
    <glyph glyph-name="U" unicode="U" horiz-adv-x="740" 
d="M370 -10q-65 0 -121 24.5t-96 67.5q-34 37 -53.5 87t-19.5 121v410h100v-415q0 -50 11.5 -82.5t32.5 -55.5q26 -29 63.5 -45.5t82.5 -16.5t82.5 16.5t63.5 45.5q21 23 32.5 55.5t11.5 82.5v415h100v-410q0 -71 -19.5 -121t-53.5 -87q-40 -43 -96 -67.5t-121 -24.5z" />
    <glyph glyph-name="V" unicode="V" horiz-adv-x="640" 
d="M355 0h-70l-275 700h104l206 -528l206 528h104z" />
    <glyph glyph-name="W" unicode="W" horiz-adv-x="950" 
d="M300 0h-70l-220 700h102l157 -507l171 507h70l171 -507l157 507h102l-220 -700h-70l-175 518z" />
    <glyph glyph-name="X" unicode="X" horiz-adv-x="659" 
d="M15 0l249 383l-209 317h123l151 -233l152 233h123l-210 -317l250 -383h-118l-197 299l-196 -299h-118z" />
    <glyph glyph-name="Y" unicode="Y" horiz-adv-x="600" 
d="M350 320v-320h-100v320l-240 380h112l178 -281l178 281h112z" />
    <glyph glyph-name="Z" unicode="Z" 
d="M70 700h470v-65l-364 -540h384v-95h-520v65l366 540h-336v95z" />
    <glyph glyph-name="bracketleft" unicode="[" horiz-adv-x="445" 
d="M150 700h245v-90h-150v-720h150v-90h-245v900z" />
    <glyph glyph-name="backslash" unicode="\" horiz-adv-x="435" 
d="M331 0l-326 700h99l326 -700h-99z" />
    <glyph glyph-name="bracketright" unicode="]" horiz-adv-x="445" 
d="M295 -200h-245v90h150v720h-150v90h245v-900z" />
    <glyph glyph-name="asciicircum" unicode="^" horiz-adv-x="540" 
d="M60 350l177 350h66l177 -350h-100l-110 217l-110 -217h-100z" />
    <glyph glyph-name="underscore" unicode="_" horiz-adv-x="490" 
d="M470 0v-80h-450v80h450z" />
    <glyph glyph-name="grave" unicode="`" horiz-adv-x="310" 
d="M175 550l-105 150h105l65 -150h-65z" />
    <glyph glyph-name="a" unicode="a" horiz-adv-x="605" 
d="M428 43q-29 -26 -66 -39.5t-79 -13.5q-32 0 -63 8.5t-55 22.5q-54 32 -87 87.5t-33 126.5t33.5 127t87.5 88q24 14 53 22t62 8q40 0 77.5 -12.5t69.5 -40.5v43h92v-470h-92v43zM425 323q-22 29 -56.5 48t-77.5 19q-34 0 -62 -12.5t-47.5 -34t-30.5 -49.5t-11 -59
q0 -32 11.5 -60t32.5 -49t49.5 -33.5t62.5 -12.5q36 0 70.5 17.5t58.5 49.5v176z" />
    <glyph glyph-name="b" unicode="b" horiz-adv-x="605" 
d="M177 0h-92v710h95v-281q32 26 69 38.5t75 12.5q33 0 62 -8t53 -22q54 -32 87.5 -88t33.5 -127t-33 -126.5t-87 -87.5q-24 -14 -55 -22.5t-63 -8.5q-86 0 -145 53v-43zM180 147q24 -32 58.5 -49.5t70.5 -17.5q34 0 62.5 12.5t49.5 33.5t32.5 49t11.5 60q0 31 -11 59
t-30.5 49.5t-47.5 34t-62 12.5q-43 0 -77.5 -19t-56.5 -48v-176z" />
    <glyph glyph-name="c" unicode="c" horiz-adv-x="530" 
d="M505 100q-15 -24 -37 -44.5t-49.5 -35t-59 -22.5t-63.5 -8q-54 0 -100 18.5t-79.5 51.5t-52.5 78t-19 97t18.5 97t51 78t77.5 51.5t98 18.5q62 0 114.5 -28t85.5 -74l-70 -59q-20 27 -52.5 49t-77.5 22q-32 0 -59.5 -11.5t-47.5 -32.5t-31.5 -49.5t-11.5 -61.5
q0 -35 11.5 -63.5t32.5 -48.5t49.5 -31.5t62.5 -11.5q47 0 80 21.5t56 51.5z" />
    <glyph glyph-name="d" unicode="d" horiz-adv-x="605" 
d="M428 43q-29 -26 -66 -39.5t-79 -13.5q-32 0 -63 8.5t-55 22.5q-54 32 -87 87.5t-33 126.5t33.5 127t87.5 88q24 14 53 22t62 8q38 0 75 -12.5t69 -38.5v281h95v-710h-92v43zM425 323q-22 29 -56.5 48t-77.5 19q-34 0 -62 -12.5t-47.5 -34t-30.5 -49.5t-11 -59
q0 -32 11.5 -60t32.5 -49t49.5 -33.5t62.5 -12.5q36 0 70.5 17.5t58.5 49.5v176z" />
    <glyph glyph-name="e" unicode="e" horiz-adv-x="545" 
d="M137 215q2 -30 14.5 -55.5t32.5 -45t47 -30.5t58 -11q52 0 83.5 20.5t51.5 43.5l62 -59q-26 -34 -76 -61t-122 -27q-51 0 -95.5 18.5t-77.5 51t-51.5 77.5t-18.5 98t17 98t47.5 77.5t72.5 51t92 18.5q49 0 90.5 -18.5t71.5 -51.5t47 -78t17 -97v-8t-1 -12h-362zM277 397
q-46 0 -83 -28t-49 -74h256q-5 22 -17.5 41t-29 32.5t-36.5 21t-41 7.5z" />
    <glyph glyph-name="f" unicode="f" horiz-adv-x="405" 
d="M355 626q-5 2 -15 3t-20 1q-20 0 -40 -8.5t-32 -24.5q-10 -13 -14 -32.5t-4 -51.5v-43h145v-85h-145v-385h-95v385h-110v85h110v40q0 48 7 78.5t23 53.5q26 37 66 57.5t88 20.5q15 0 30.5 -2t25.5 -5z" />
    <glyph glyph-name="g" unicode="g" horiz-adv-x="605" 
d="M425 41q-59 -51 -142 -51q-32 0 -63 8.5t-55 22.5q-54 32 -87 87.5t-33 126.5t33.5 127t87.5 88q24 14 53 22t62 8q40 0 77.5 -12.5t69.5 -40.5v43h92v-450q0 -53 -7 -89.5t-21 -64.5q-29 -55 -81 -85.5t-122 -30.5q-46 0 -83 10.5t-66 26.5t-49 35t-31 37l70 65
q26 -34 61.5 -59t93.5 -25q79 0 114 54q13 20 19.5 48t6.5 73v26zM425 323q-22 29 -56.5 48t-77.5 19q-34 0 -62 -12.5t-47.5 -34t-30.5 -49.5t-11 -59q0 -32 11.5 -60t32.5 -49t49.5 -33.5t62.5 -12.5q36 0 70.5 17.5t58.5 49.5v176z" />
    <glyph glyph-name="h" unicode="h" horiz-adv-x="610" 
d="M180 429q20 17 54.5 34t83.5 17q52 0 96.5 -22.5t74.5 -60.5q23 -29 34.5 -67.5t11.5 -99.5v-230h-95v235q0 45 -7.5 69t-20.5 40q-17 21 -42.5 33.5t-54.5 12.5q-47 0 -80.5 -20.5t-54.5 -46.5v-323h-95v710h95v-281z" />
    <glyph glyph-name="i" unicode="i" horiz-adv-x="265" 
d="M85 470h95v-470h-95v470zM70 637q0 26 18 44.5t44 18.5t44.5 -18.5t18.5 -44.5t-18.5 -44t-44.5 -18t-44 18t-18 44z" />
    <glyph glyph-name="j" unicode="j" horiz-adv-x="285" 
d="M90 637q0 26 18 44.5t44 18.5t44.5 -18.5t18.5 -44.5t-18.5 -44t-44.5 -18t-44 18t-18 44zM105 470h95v-510q0 -48 -7 -78.5t-23 -53.5q-26 -37 -66 -57.5t-88 -20.5q-15 0 -30.5 2t-25.5 5l20 87q5 -2 15 -3t20 -1q20 0 40 8.5t32 24.5q10 13 14 32.5t4 51.5v513z" />
    <glyph glyph-name="k" unicode="k" horiz-adv-x="550" 
d="M540 0h-127l-233 230v-230h-95v710h95v-420l196 180h134l-235 -212z" />
    <glyph glyph-name="l" unicode="l" horiz-adv-x="265" 
d="M85 710h95v-710h-95v710z" />
    <glyph glyph-name="m" unicode="m" horiz-adv-x="945" 
d="M177 470v-45q7 8 20.5 17.5t31.5 18t40 14t46 5.5q52 0 94.5 -21.5t71.5 -56.5q32 32 73.5 55t105.5 23q51 0 94.5 -21t72.5 -58q22 -27 32.5 -64t10.5 -97v-240h-95v255q0 36 -7 57.5t-20 36.5q-16 19 -39 30t-49 11q-51 0 -85.5 -21.5t-57.5 -45.5q4 -17 6 -37.5
t2 -45.5v-240h-95v255q0 36 -7 57.5t-20 36.5q-16 19 -40 30t-51 11q-44 0 -78 -21.5t-54 -45.5v-323h-95v470h92z" />
    <glyph glyph-name="n" unicode="n" horiz-adv-x="610" 
d="M177 425q19 18 54.5 36.5t86.5 18.5q52 0 96.5 -22.5t74.5 -60.5q23 -29 34.5 -67.5t11.5 -99.5v-230h-95v235q0 45 -7.5 69t-20.5 40q-17 21 -42.5 33.5t-54.5 12.5q-47 0 -80.5 -20.5t-54.5 -46.5v-323h-95v470h92v-45z" />
    <glyph glyph-name="o" unicode="o" horiz-adv-x="576" 
d="M45 235q0 52 18.5 97t51 78t77 51.5t96.5 18.5t96.5 -18.5t77 -51.5t51 -78t18.5 -97q0 -53 -18.5 -97.5t-51 -77.5t-77 -51.5t-96.5 -18.5t-96.5 18.5t-77 51.5t-51 77.5t-18.5 97.5zM140 235q0 -32 11 -60.5t30.5 -49.5t46.5 -33t60 -12t60 12t46.5 33t30.5 49.5
t11 60.5t-11 60.5t-30.5 49.5t-46.5 33t-60 12t-60 -12t-46.5 -33t-30.5 -49.5t-11 -60.5z" />
    <glyph glyph-name="p" unicode="p" horiz-adv-x="605" 
d="M180 -240h-95v710h92v-43q32 28 69.5 40.5t77.5 12.5q33 0 62 -8t53 -22q54 -32 87.5 -88t33.5 -127t-33 -126.5t-87 -87.5q-24 -14 -55 -22.5t-63 -8.5q-83 0 -142 51v-281zM180 147q24 -32 58.5 -49.5t70.5 -17.5q34 0 62.5 12.5t49.5 33.5t32.5 49t11.5 60
q0 31 -11 59t-30.5 49.5t-47.5 34t-62 12.5q-43 0 -77.5 -19t-56.5 -48v-176z" />
    <glyph glyph-name="q" unicode="q" horiz-adv-x="605" 
d="M425 41q-59 -51 -142 -51q-32 0 -63 8.5t-55 22.5q-54 32 -87 87.5t-33 126.5t33.5 127t87.5 88q24 14 53 22t62 8q40 0 77.5 -12.5t69.5 -40.5v43h92v-710h-95v281zM425 323q-22 29 -56.5 48t-77.5 19q-34 0 -62 -12.5t-47.5 -34t-30.5 -49.5t-11 -59q0 -32 11.5 -60
t32.5 -49t49.5 -33.5t62.5 -12.5q36 0 70.5 17.5t58.5 49.5v176z" />
    <glyph glyph-name="r" unicode="r" horiz-adv-x="385" 
d="M344 386q-15 4 -37 4q-37 0 -72 -22.5t-55 -56.5v-311h-95v470h92v-54q17 24 53 44t88 20q8 0 18.5 -0.5t18.5 -2.5z" />
    <glyph glyph-name="s" unicode="s" horiz-adv-x="455" 
d="M89 125q67 -52 139 -52q31 0 56.5 15.5t25.5 43.5q0 20 -13.5 32t-34.5 19.5t-47 13.5t-52 15q-21 7 -40.5 17.5t-34.5 25.5t-24 34t-9 44q0 38 15.5 65.5t40 45.5t55.5 27t63 9q52 0 90 -14.5t66 -37.5l-49 -68q-22 17 -47 27t-54 10q-35 0 -60 -15.5t-25 -43.5
q0 -24 24.5 -35t59.5 -20q28 -7 58 -17.5t55 -27.5t41.5 -42.5t16.5 -61.5q0 -33 -14.5 -60t-38.5 -45.5t-56 -28.5t-66 -10q-110 0 -190 65z" />
    <glyph glyph-name="t" unicode="t" horiz-adv-x="420" 
d="M375 0q-14 -5 -34 -7.5t-40 -2.5q-45 0 -77.5 14.5t-55.5 40.5q-21 23 -29.5 55t-8.5 70v215h-120v85h120v130h95v-130h150v-85h-150v-220q0 -19 2.5 -34t11.5 -26q10 -12 28 -18.5t37 -6.5q11 0 26 1.5t26 4.5z" />
    <glyph glyph-name="u" unicode="u" horiz-adv-x="600" 
d="M285 -10q-51 0 -94.5 21t-72.5 58q-22 27 -32.5 64t-10.5 97v240h95v-255q0 -36 7 -57.5t20 -36.5q16 -19 40 -30t51 -11q44 0 78 21.5t54 45.5v323h95v-470h-92v43q-8 -8 -21.5 -17t-31 -17t-39.5 -13.5t-46 -5.5z" />
    <glyph glyph-name="v" unicode="v" horiz-adv-x="494" 
d="M10 470h98l139 -320l139 320h98l-204 -470h-66z" />
    <glyph glyph-name="w" unicode="w" horiz-adv-x="798" 
d="M432 470l129 -321l129 321h98l-191 -470h-66l-132 330l-132 -330h-66l-191 470h98l129 -321l129 321h66z" />
    <glyph glyph-name="x" unicode="x" horiz-adv-x="510" 
d="M255 176l-127 -176h-113l178 247l-161 223h112l111 -152l111 152h112l-161 -223l178 -247h-113z" />
    <glyph glyph-name="y" unicode="y" horiz-adv-x="509" 
d="M84 -240l127 289l-201 421h102l147 -310l135 310h100l-309 -710h-101z" />
    <glyph glyph-name="z" unicode="z" horiz-adv-x="470" 
d="M298 385h-243v85h375v-60l-259 -325h279v-85h-410v60z" />
    <glyph glyph-name="braceleft" unicode="{" horiz-adv-x="445" 
d="M192 250q10 -5 19.5 -12.5t17 -19.5t12 -29t4.5 -42q0 -48 -5 -90t-5 -84q0 -20 3.5 -36t13.5 -27q18 -20 59 -20h34v-90h-30q-46 0 -74.5 7.5t-48.5 24.5q-25 20 -38.5 53t-13.5 82q0 50 5 96.5t5 86.5q0 39 -19 54.5t-61 15.5v60q42 0 61 15.5t19 54.5q0 40 -5 86.5
t-5 96.5q0 49 13.5 82t38.5 53q20 17 48.5 24.5t74.5 7.5h30v-90h-34q-41 0 -59 -20q-10 -11 -13.5 -27t-3.5 -36q0 -42 5 -84t5 -90q0 -25 -4.5 -42t-12 -29t-17 -19.5t-19.5 -12.5z" />
    <glyph glyph-name="bar" unicode="|" horiz-adv-x="215" 
d="M60 700h95v-900h-95v900z" />
    <glyph glyph-name="braceright" unicode="}" horiz-adv-x="445" 
d="M253 250q-10 5 -19.5 12.5t-17 19.5t-12 29t-4.5 42q0 48 5 90t5 84q0 20 -3.5 36t-13.5 27q-18 20 -59 20h-34v90h30q46 0 74.5 -7.5t48.5 -24.5q25 -20 38.5 -53t13.5 -82q0 -50 -5 -96.5t-5 -86.5q0 -39 19 -54.5t61 -15.5v-60q-42 0 -61 -15.5t-19 -54.5
q0 -40 5 -86.5t5 -96.5q0 -49 -13.5 -82t-38.5 -53q-20 -17 -48.5 -24.5t-74.5 -7.5h-30v90h34q41 0 59 20q10 11 13.5 27t3.5 36q0 42 -5 84t-5 90q0 25 4.5 42t12 29t17 19.5t19.5 12.5z" />
    <glyph glyph-name="asciitilde" unicode="~" horiz-adv-x="560" 
d="M535 299q-9 -23 -22.5 -45.5t-32 -41t-43 -30t-54.5 -11.5q-35 0 -63 13.5t-52 30t-45 30.5t-42 14q-14 0 -25.5 -7t-21.5 -18t-18 -25t-14 -27l-77 39q9 22 22.5 45t32 41.5t43 30t54.5 11.5q35 0 63 -14t52 -30.5t45 -30t42 -13.5q13 0 25 7t22 18t18 24.5t14 27.5z
" />
    <glyph glyph-name="uni00A0" unicode="&#xa0;" horiz-adv-x="270" 
 />
    <glyph glyph-name="exclamdown" unicode="&#xa1;" horiz-adv-x="340" 
d="M138 240h65l15 -250v-230h-95v230zM100 410q0 29 20.5 49.5t49.5 20.5t49.5 -20.5t20.5 -49.5t-20.5 -49.5t-49.5 -20.5t-49.5 20.5t-20.5 49.5z" />
    <glyph glyph-name="cent" unicode="&#xa2;" horiz-adv-x="530" 
d="M242 -4q-44 8 -80 29.5t-62 53t-40.5 71.5t-14.5 85q0 46 14.5 86t40.5 71.5t62 53t80 29.5v110h95v-110q47 -9 86.5 -34.5t66.5 -62.5l-70 -59q-20 27 -52.5 49t-77.5 22q-32 0 -59.5 -11.5t-47.5 -32.5t-31.5 -49.5t-11.5 -61.5q0 -35 11.5 -63.5t32.5 -48.5
t49.5 -31.5t62.5 -11.5q47 0 80 21.5t56 51.5l73 -53q-25 -42 -69.5 -70t-98.5 -36v-109h-95v111z" />
    <glyph glyph-name="sterling" unicode="&#xa3;" horiz-adv-x="530" 
d="M385 400v-85h-120q6 -29 6 -60q0 -47 -16 -91.5t-42 -73.5h292v-90h-465v60q33 13 58.5 35.5t43 49.5t26 55.5t8.5 54.5q0 16 -2.5 31t-6.5 29h-107v85h76q-12 29 -21 59t-9 65q0 41 16 75.5t43 59t61.5 38t72.5 13.5q31 0 57.5 -8t48 -21.5t39 -30t29.5 -34.5l-75 -54
q-14 23 -39 40.5t-60 17.5q-18 0 -35.5 -6.5t-31.5 -19.5t-22.5 -31t-8.5 -41q0 -30 11.5 -60t24.5 -62h148z" />
    <glyph glyph-name="currency" unicode="&#xa4;" horiz-adv-x="560" 
d="M74 351q0 31 8.5 59t23.5 52l-76 76l63 63l76 -76q24 15 52 23.5t59 8.5t59 -8.5t52 -23.5l76 76l63 -63l-76 -76q32 -49 32 -111t-32 -111l76 -76l-63 -63l-76 76q-49 -32 -111 -32t-111 32l-76 -76l-63 63l76 76q-15 24 -23.5 52t-8.5 59zM169 351q0 -23 9 -43t24 -35
t35 -24t43 -9t43 9t35 24t24 35t9 43t-9 43t-24 35t-35 24t-43 9t-43 -9t-35 -24t-24 -35t-9 -43z" />
    <glyph glyph-name="yen" unicode="&#xa5;" horiz-adv-x="600" 
d="M540 315v-85h-190v-230h-100v230h-190v85h190l-44 70h-146v85h93l-143 230h114l176 -286l176 286h114l-144 -230h94v-85h-147l-43 -70h190z" />
    <glyph glyph-name="brokenbar" unicode="&#xa6;" horiz-adv-x="255" 
d="M80 190h95v-390h-95v390zM80 700h95v-390h-95v390z" />
    <glyph glyph-name="section" unicode="&#xa7;" horiz-adv-x="580" 
d="M92 524q0 38 16 72t44.5 59.5t67 40t84.5 14.5q33 0 61.5 -6.5t52 -17t42 -22.5t32.5 -24l-59 -73q-57 48 -125 48q-22 0 -42.5 -5.5t-37 -16.5t-26.5 -27.5t-10 -38.5q0 -29 23 -47t58 -33t77 -29.5t80 -35.5q45 -24 75 -63t30 -97q0 -48 -25.5 -91.5t-63.5 -71.5
q19 -20 30.5 -45t11.5 -58q0 -38 -16 -72t-44.5 -59.5t-67 -40t-84.5 -14.5q-33 0 -61.5 6.5t-52 17t-42 22.5t-32.5 24l59 73q57 -48 125 -48q22 0 42.5 5.5t37 16.5t26.5 27.5t10 38.5q0 28 -23 46.5t-58 33.5t-77 29.5t-80 35.5q-45 24 -75 63t-30 97q0 48 25.5 91
t63.5 72q-20 19 -31 44t-11 59zM145 262q0 -32 20 -53.5t51.5 -37t70 -29t74.5 -29.5q13 6 26.5 17t24 24.5t17 30t6.5 33.5q0 32 -20 53t-51.5 37t-70 29t-75.5 30q-13 -7 -26 -17.5t-23.5 -24.5t-17 -30t-6.5 -33z" />
    <glyph glyph-name="dieresis" unicode="&#xa8;" horiz-adv-x="450" 
d="M70 617q0 26 18 44.5t44 18.5t44.5 -18.5t18.5 -44.5t-18.5 -44t-44.5 -18t-44 18t-18 44zM255 617q0 26 18 44.5t44 18.5t44.5 -18.5t18.5 -44.5t-18.5 -44t-44.5 -18t-44 18t-18 44z" />
    <glyph glyph-name="copyright" unicode="&#xa9;" horiz-adv-x="840" 
d="M517 450q-17 14 -38.5 24.5t-51.5 10.5q-52 0 -86 -37t-34 -95q0 -28 9 -52.5t25.5 -42.5t39.5 -28t52 -10q32 0 54 11t41 25l39 -52q-26 -23 -60 -37.5t-76 -14.5q-44 0 -80 15.5t-62 42.5t-40.5 64t-14.5 79t14.5 78.5t40.5 63.5t61 42.5t77 15.5q41 0 72.5 -14.5
t56.5 -37.5zM70 350q0 72 27.5 136t75 111.5t111.5 75t136 27.5t136 -27.5t111.5 -75t75 -111.5t27.5 -136t-27.5 -136t-75 -111.5t-111.5 -75t-136 -27.5t-136 27.5t-111.5 75t-75 111.5t-27.5 136zM135 350q0 -59 22.5 -110.5t61 -90t90 -61t110.5 -22.5t111 22.5t90.5 61
t61 90t22.5 110.5t-22.5 111t-61 90.5t-90.5 61t-111 22.5t-110.5 -22.5t-90 -61t-61 -90.5t-22.5 -111z" />
    <glyph glyph-name="ordfeminine" unicode="&#xaa;" horiz-adv-x="416" 
d="M292 604q-13 17 -32 28t-45 11q-20 0 -36.5 -7.5t-28.5 -20t-19 -29.5t-7 -36t7 -36t19 -29.5t28.5 -20t36.5 -7.5q26 0 45 11t32 28v108zM366 397h-72v25q-36 -32 -90 -32q-31 0 -59 12.5t-49 34t-33.5 50.5t-12.5 63t12.5 63t33.5 50.5t49 34t59 12.5q54 0 90 -32v25
h72v-306z" />
    <glyph glyph-name="guillemotleft" unicode="&#xab;" horiz-adv-x="600" 
d="M330 50h-116l-134 165v50l134 165h116l-154 -190zM560 50h-116l-134 165v50l134 165h116l-154 -190z" />
    <glyph glyph-name="logicalnot" unicode="&#xac;" horiz-adv-x="530" 
d="M480 125h-90v180h-350v90h440v-270z" />
    <glyph glyph-name="uni00AD" unicode="&#xad;" horiz-adv-x="460" 
d="M380 295v-80h-300v80h300z" />
    <glyph glyph-name="registered" unicode="&#xae;" horiz-adv-x="840" 
d="M546 438q0 -16 -5 -32t-14.5 -30t-23 -24.5t-29.5 -15.5l122 -175h-83l-119 170h-19v-170h-72v383h128q25 0 42.5 -6t31.5 -17q41 -32 41 -83zM375 399h50q17 0 25.5 3t13.5 9q9 10 9 26q0 14 -9 25q-5 6 -13.5 10t-25.5 4h-50v-77zM70 350q0 72 27.5 136t75 111.5
t111.5 75t136 27.5t136 -27.5t111.5 -75t75 -111.5t27.5 -136t-27.5 -136t-75 -111.5t-111.5 -75t-136 -27.5t-136 27.5t-111.5 75t-75 111.5t-27.5 136zM135 350q0 -59 22.5 -110.5t61 -90t90 -61t110.5 -22.5t111 22.5t90.5 61t61 90t22.5 110.5t-22.5 111t-61 90.5
t-90.5 61t-111 22.5t-110.5 -22.5t-90 -61t-61 -90.5t-22.5 -111z" />
    <glyph glyph-name="macron" unicode="&#xaf;" horiz-adv-x="440" 
d="M370 660v-85h-300v85h300z" />
    <glyph glyph-name="degree" unicode="&#xb0;" horiz-adv-x="400" 
d="M40 550q0 33 12.5 62t34.5 51t51 34.5t62 12.5t62 -12.5t51 -34.5t34.5 -51t12.5 -62t-12.5 -62t-34.5 -51t-51 -34.5t-62 -12.5t-62 12.5t-51 34.5t-34.5 51t-12.5 62zM120 550q0 -33 23.5 -56.5t56.5 -23.5t56.5 23.5t23.5 56.5t-23.5 56.5t-56.5 23.5t-56.5 -23.5
t-23.5 -56.5z" />
    <glyph glyph-name="plusminus" unicode="&#xb1;" horiz-adv-x="540" 
d="M225 365v135h90v-135h175v-90h-175v-135h-90v135h-175v90h175zM490 110v-90h-440v90h440z" />
    <glyph glyph-name="twosuperior" unicode="&#xb2;" horiz-adv-x="311" 
d="M31 616q11 43 43.5 68.5t77.5 25.5q24 0 46.5 -8.5t39 -24t26.5 -37t10 -47.5q0 -28 -12.5 -51.5t-30.5 -43.5l-79 -88h124v-70h-246v40l136 152q11 11 22 27t11 34q0 19 -12.5 33t-34.5 14q-19 0 -32 -12.5t-19 -32.5z" />
    <glyph glyph-name="threesuperior" unicode="&#xb3;" horiz-adv-x="303" 
d="M80 432q8 -14 23.5 -24t34.5 -10q26 0 43 17.5t17 42.5q0 24 -16 43t-45 19q-22 0 -49 -11v40l61 81h-115v70h223v-40l-64 -88q35 -12 57.5 -44t22.5 -70q0 -27 -10.5 -50.5t-28.5 -40.5t-43 -27t-53 -10q-41 0 -71 18.5t-47 45.5z" />
    <glyph glyph-name="acute" unicode="&#xb4;" horiz-adv-x="310" 
d="M70 550l65 150h105l-105 -150h-65z" />
    <glyph glyph-name="mu" unicode="&#xb5;" horiz-adv-x="610" 
d="M295 -10q-20 0 -37.5 4.5t-32.5 11t-26.5 14.5t-18.5 15v-275h-95v710h95v-255q0 -36 7 -57.5t20 -36.5q16 -19 39 -30t49 -11q47 0 79.5 21t55.5 46v323h95v-470h-92v43q-8 -8 -21.5 -17t-31 -17t-39.5 -13.5t-46 -5.5z" />
    <glyph glyph-name="paragraph" unicode="&#xb6;" horiz-adv-x="685" 
d="M440 610h-100v-810h-95v470q-45 0 -84 17t-68 46t-46 68t-17 84q0 54 23.5 99.5t64.5 74.5q27 20 61.5 30.5t85.5 10.5h370v-90h-100v-810h-95v810zM125 485q0 -26 9 -48.5t25 -39.5t38 -27t48 -10v250q-26 0 -48 -10t-38 -27t-25 -39.5t-9 -48.5z" />
    <glyph glyph-name="periodcentered" unicode="&#xb7;" horiz-adv-x="340" 
d="M100 235q0 29 20.5 49.5t49.5 20.5t49.5 -20.5t20.5 -49.5t-20.5 -49.5t-49.5 -20.5t-49.5 20.5t-20.5 49.5z" />
    <glyph glyph-name="cedilla" unicode="&#xb8;" horiz-adv-x="275" 
d="M205 10l-30 -150h-105l70 150h65z" />
    <glyph glyph-name="onesuperior" unicode="&#xb9;" horiz-adv-x="235" 
d="M30 644l110 56h45v-360h-75v266l-80 -37v75z" />
    <glyph glyph-name="ordmasculine" unicode="&#xba;" horiz-adv-x="416" 
d="M292 549q0 41 -23 67.5t-61 26.5t-61 -26.5t-23 -67.5q0 -39 23 -65.5t61 -26.5t61 26.5t23 65.5zM50 550q0 33 11.5 62t32.5 51t50 34.5t64 12.5t64 -12.5t50 -34.5t32.5 -51t11.5 -62t-11.5 -62t-32.5 -51t-50 -34.5t-64 -12.5t-64 12.5t-50 34.5t-32.5 51t-11.5 62z
" />
    <glyph glyph-name="guillemotright" unicode="&#xbb;" horiz-adv-x="600" 
d="M424 240l-154 190h116l134 -165v-50l-134 -165h-116zM194 240l-154 190h116l134 -165v-50l-134 -165h-116z" />
    <glyph glyph-name="onequarter" unicode="&#xbc;" horiz-adv-x="632" 
d="M30 644l110 56h45v-360h-75v266l-80 -37v75zM65 0l409 700h86l-409 -700h-86zM556 360v-213h61v-70h-61v-77h-75v77h-161v40l191 243h45zM481 147v66l-50 -66h50z" />
    <glyph glyph-name="onehalf" unicode="&#xbd;" horiz-adv-x="676" 
d="M30 644l110 56h45v-360h-75v266l-80 -37v75zM65 0l409 700h86l-409 -700h-86zM396 276q11 43 43.5 68.5t77.5 25.5q24 0 46.5 -8.5t39 -24t26.5 -37t10 -47.5q0 -28 -12.5 -51.5t-30.5 -43.5l-79 -88h124v-70h-246v40l136 152q11 11 22 27t11 34q0 19 -12.5 33t-34.5 14
q-19 0 -32 -12.5t-19 -32.5z" />
    <glyph glyph-name="threequarters" unicode="&#xbe;" horiz-adv-x="670" 
d="M80 432q8 -14 23.5 -24t34.5 -10q26 0 43 17.5t17 42.5q0 24 -16 43t-45 19q-22 0 -49 -11v40l61 81h-115v70h223v-40l-64 -88q35 -12 57.5 -44t22.5 -70q0 -27 -10.5 -50.5t-28.5 -40.5t-43 -27t-53 -10q-41 0 -71 18.5t-47 45.5zM103 0l409 700h86l-409 -700h-86z
M594 360v-213h61v-70h-61v-77h-75v77h-161v40l191 243h45zM519 147v66l-50 -66h50z" />
    <glyph glyph-name="questiondown" unicode="&#xbf;" horiz-adv-x="500" 
d="M435 -110q-8 -30 -26 -56t-44.5 -44.5t-59.5 -29t-69 -10.5q-42 0 -78 14.5t-62.5 39t-41 57.5t-14.5 71t13 68t32 54t42 42t42 33t32 28t13 26q0 19 -26 42l63 66q31 -23 44.5 -51t13.5 -56q0 -31 -13 -54t-32 -42t-42 -36t-42 -34.5t-32 -38t-13 -47.5q0 -38 28 -65
t73 -27q40 0 70.5 22t38.5 54zM310 410q0 -29 -20.5 -49.5t-49.5 -20.5t-49.5 20.5t-20.5 49.5t20.5 49.5t49.5 20.5t49.5 -20.5t20.5 -49.5z" />
    <glyph glyph-name="Agrave" unicode="&#xc0;" horiz-adv-x="660" 
d="M477 180h-295l-73 -180h-104l290 700h70l290 -700h-104zM222 275h216l-108 260zM295 750l-105 150h105l65 -150h-65z" />
    <glyph glyph-name="Aacute" unicode="&#xc1;" horiz-adv-x="660" 
d="M477 180h-295l-73 -180h-104l290 700h70l290 -700h-104zM222 275h216l-108 260zM300 750l65 150h105l-105 -150h-65z" />
    <glyph glyph-name="Acircumflex" unicode="&#xc2;" horiz-adv-x="660" 
d="M477 180h-295l-73 -180h-104l290 700h70l290 -700h-104zM222 275h216l-108 260zM180 750l95 150h110l95 -150h-65l-85 94l-85 -94h-65z" />
    <glyph glyph-name="Atilde" unicode="&#xc3;" horiz-adv-x="660" 
d="M477 180h-295l-73 -180h-104l290 700h70l290 -700h-104zM222 275h216l-108 260zM160 781q1 22 8.5 42t20.5 35t31 23.5t41 8.5q19 0 37 -7t35 -15.5t33 -15.5t31 -7q17 0 25.5 11.5t12.5 33.5l65 -21q-1 -22 -8.5 -42t-20.5 -35t-31.5 -23.5t-40.5 -8.5q-19 0 -37 7
t-35 15.5t-33 15.5t-31 7q-17 0 -25.5 -11.5t-12.5 -33.5z" />
    <glyph glyph-name="Adieresis" unicode="&#xc4;" horiz-adv-x="660" 
d="M477 180h-295l-73 -180h-104l290 700h70l290 -700h-104zM222 275h216l-108 260zM175 817q0 26 18 44.5t44 18.5t44.5 -18.5t18.5 -44.5t-18.5 -44t-44.5 -18t-44 18t-18 44zM360 817q0 26 18 44.5t44 18.5t44.5 -18.5t18.5 -44.5t-18.5 -44t-44.5 -18t-44 18t-18 44z" />
    <glyph glyph-name="Aring" unicode="&#xc5;" horiz-adv-x="660" 
d="M477 180h-295l-73 -180h-104l290 700h70l290 -700h-104zM222 275h216l-108 260zM230 830q0 42 29 71t71 29t71 -29t29 -71t-29 -71t-71 -29t-71 29t-29 71zM290 830q0 -17 11.5 -28.5t28.5 -11.5t28.5 11.5t11.5 28.5t-11.5 28.5t-28.5 11.5t-28.5 -11.5t-11.5 -28.5z
" />
    <glyph glyph-name="AE" unicode="&#xc6;" horiz-adv-x="910" 
d="M460 0v180h-258l-108 -180h-114l418 700h462v-95h-300v-180h230v-95h-230v-235h310v-95h-410zM258 275h202v340z" />
    <glyph glyph-name="Ccedilla" unicode="&#xc7;" horiz-adv-x="690" 
d="M35 350q0 76 27 141.5t74.5 114t112 76.5t140.5 28q75 0 142.5 -28.5t113.5 -79.5l-67 -66q-31 34 -81.5 56.5t-107.5 22.5q-54 0 -100 -20t-80.5 -55.5t-54 -84t-19.5 -105.5q0 -59 20 -108t55.5 -84t83.5 -54t104 -19q35 0 65.5 9t55.5 23t45 31.5t35 35.5l71 -64
q-42 -54 -108 -89t-141 -40l-26 -131h-105l62 133q-69 7 -127.5 37t-100.5 77t-65.5 109t-23.5 134z" />
    <glyph glyph-name="Egrave" unicode="&#xc8;" horiz-adv-x="540" 
d="M420 425v-95h-230v-235h310v-95h-410v700h400v-95h-300v-180h230zM270 750l-105 150h105l65 -150h-65z" />
    <glyph glyph-name="Eacute" unicode="&#xc9;" horiz-adv-x="540" 
d="M420 425v-95h-230v-235h310v-95h-410v700h400v-95h-300v-180h230zM255 750l65 150h105l-105 -150h-65z" />
    <glyph glyph-name="Ecircumflex" unicode="&#xca;" horiz-adv-x="540" 
d="M420 425v-95h-230v-235h310v-95h-410v700h400v-95h-300v-180h230zM140 750l95 150h110l95 -150h-65l-85 94l-85 -94h-65z" />
    <glyph glyph-name="Edieresis" unicode="&#xcb;" horiz-adv-x="540" 
d="M420 425v-95h-230v-235h310v-95h-410v700h400v-95h-300v-180h230zM135 817q0 26 18 44.5t44 18.5t44.5 -18.5t18.5 -44.5t-18.5 -44t-44.5 -18t-44 18t-18 44zM320 817q0 26 18 44.5t44 18.5t44.5 -18.5t18.5 -44.5t-18.5 -44t-44.5 -18t-44 18t-18 44z" />
    <glyph glyph-name="Igrave" unicode="&#xcc;" horiz-adv-x="280" 
d="M90 700h100v-700h-100v700zM116 750l-105 150h105l65 -150h-65z" />
    <glyph glyph-name="Iacute" unicode="&#xcd;" horiz-adv-x="280" 
d="M90 700h100v-700h-100v700zM100 750l65 150h105l-105 -150h-65z" />
    <glyph glyph-name="Icircumflex" unicode="&#xce;" horiz-adv-x="280" 
d="M90 700h100v-700h-100v700zM-9 750l95 150h110l95 -150h-65l-85 94l-85 -94h-65z" />
    <glyph glyph-name="Idieresis" unicode="&#xcf;" horiz-adv-x="280" 
d="M90 700h100v-700h-100v700zM-14 817q0 26 18 44.5t44 18.5t44.5 -18.5t18.5 -44.5t-18.5 -44t-44.5 -18t-44 18t-18 44zM171 817q0 26 18 44.5t44 18.5t44.5 -18.5t18.5 -44.5t-18.5 -44t-44.5 -18t-44 18t-18 44z" />
    <glyph glyph-name="Eth" unicode="&#xd0;" horiz-adv-x="715" 
d="M90 0v330h-100v95h100v275h210q84 0 140.5 -17t99.5 -49q65 -48 102.5 -122t37.5 -162t-37 -162t-102 -122q-43 -32 -100 -49t-141 -17h-210zM580 350q0 59 -22.5 110t-62.5 86q-33 29 -79.5 44t-120.5 15h-105v-180h200v-95h-200v-235h105q74 0 120.5 15t79.5 44
q40 35 62.5 86t22.5 110z" />
    <glyph glyph-name="Ntilde" unicode="&#xd1;" horiz-adv-x="770" 
d="M190 514v-514h-100v700h70l420 -514v514h100v-700h-70zM214 781q1 22 8.5 42t20.5 35t31 23.5t41 8.5q19 0 37 -7t35 -15.5t33 -15.5t31 -7q17 0 25.5 11.5t12.5 33.5l65 -21q-1 -22 -8.5 -42t-20.5 -35t-31.5 -23.5t-40.5 -8.5q-19 0 -37 7t-35 15.5t-33 15.5t-31 7
q-17 0 -25.5 -11.5t-12.5 -33.5z" />
    <glyph glyph-name="Ograve" unicode="&#xd2;" horiz-adv-x="770" 
d="M35 350q0 76 27 142t74 114.5t111 76t138 27.5t138 -27.5t111 -76t74 -114.5t27 -142q0 -77 -27 -142.5t-74 -114t-111 -76t-138 -27.5t-138 27.5t-111 76t-74 114t-27 142.5zM135 350q0 -57 19 -105.5t52.5 -84t79 -55.5t99.5 -20t99.5 20t79 55.5t52.5 84t19 105.5
t-19 105.5t-52.5 84t-79 55.5t-99.5 20t-99.5 -20t-79 -55.5t-52.5 -84t-19 -105.5zM355 750l-105 150h105l65 -150h-65z" />
    <glyph glyph-name="Oacute" unicode="&#xd3;" horiz-adv-x="770" 
d="M35 350q0 76 27 142t74 114.5t111 76t138 27.5t138 -27.5t111 -76t74 -114.5t27 -142q0 -77 -27 -142.5t-74 -114t-111 -76t-138 -27.5t-138 27.5t-111 76t-74 114t-27 142.5zM135 350q0 -57 19 -105.5t52.5 -84t79 -55.5t99.5 -20t99.5 20t79 55.5t52.5 84t19 105.5
t-19 105.5t-52.5 84t-79 55.5t-99.5 20t-99.5 -20t-79 -55.5t-52.5 -84t-19 -105.5zM350 750l65 150h105l-105 -150h-65z" />
    <glyph glyph-name="Ocircumflex" unicode="&#xd4;" horiz-adv-x="770" 
d="M35 350q0 76 27 142t74 114.5t111 76t138 27.5t138 -27.5t111 -76t74 -114.5t27 -142q0 -77 -27 -142.5t-74 -114t-111 -76t-138 -27.5t-138 27.5t-111 76t-74 114t-27 142.5zM135 350q0 -57 19 -105.5t52.5 -84t79 -55.5t99.5 -20t99.5 20t79 55.5t52.5 84t19 105.5
t-19 105.5t-52.5 84t-79 55.5t-99.5 20t-99.5 -20t-79 -55.5t-52.5 -84t-19 -105.5zM235 750l95 150h110l95 -150h-65l-85 94l-85 -94h-65z" />
    <glyph glyph-name="Otilde" unicode="&#xd5;" horiz-adv-x="770" 
d="M35 350q0 76 27 142t74 114.5t111 76t138 27.5t138 -27.5t111 -76t74 -114.5t27 -142q0 -77 -27 -142.5t-74 -114t-111 -76t-138 -27.5t-138 27.5t-111 76t-74 114t-27 142.5zM135 350q0 -57 19 -105.5t52.5 -84t79 -55.5t99.5 -20t99.5 20t79 55.5t52.5 84t19 105.5
t-19 105.5t-52.5 84t-79 55.5t-99.5 20t-99.5 -20t-79 -55.5t-52.5 -84t-19 -105.5zM215 781q1 22 8.5 42t20.5 35t31 23.5t41 8.5q19 0 37 -7t35 -15.5t33 -15.5t31 -7q17 0 25.5 11.5t12.5 33.5l65 -21q-1 -22 -8.5 -42t-20.5 -35t-31.5 -23.5t-40.5 -8.5q-19 0 -37 7
t-35 15.5t-33 15.5t-31 7q-17 0 -25.5 -11.5t-12.5 -33.5z" />
    <glyph glyph-name="Odieresis" unicode="&#xd6;" horiz-adv-x="770" 
d="M35 350q0 76 27 142t74 114.5t111 76t138 27.5t138 -27.5t111 -76t74 -114.5t27 -142q0 -77 -27 -142.5t-74 -114t-111 -76t-138 -27.5t-138 27.5t-111 76t-74 114t-27 142.5zM135 350q0 -57 19 -105.5t52.5 -84t79 -55.5t99.5 -20t99.5 20t79 55.5t52.5 84t19 105.5
t-19 105.5t-52.5 84t-79 55.5t-99.5 20t-99.5 -20t-79 -55.5t-52.5 -84t-19 -105.5zM230 817q0 26 18 44.5t44 18.5t44.5 -18.5t18.5 -44.5t-18.5 -44t-44.5 -18t-44 18t-18 44zM415 817q0 26 18 44.5t44 18.5t44.5 -18.5t18.5 -44.5t-18.5 -44t-44.5 -18t-44 18t-18 44z
" />
    <glyph glyph-name="multiply" unicode="&#xd7;" horiz-adv-x="548" 
d="M274 324l145 145l64 -64l-145 -145l145 -145l-64 -64l-145 145l-145 -145l-64 64l145 145l-145 145l64 64z" />
    <glyph glyph-name="Oslash" unicode="&#xd8;" horiz-adv-x="770" 
d="M35 350q0 76 27 142t74 114.5t111 76t138 27.5q55 0 103.5 -15t90.5 -43l49 58h119l-99 -119q41 -48 64 -109t23 -132q0 -77 -27 -142.5t-74 -114t-111 -76t-138 -27.5q-55 0 -103.5 15t-90.5 42l-49 -57h-120l100 118q-42 48 -64.5 109t-22.5 133zM135 350
q0 -48 13.5 -90t37.5 -75l331 392q-29 18 -62 28t-70 10q-54 0 -99.5 -20t-79 -55.5t-52.5 -84t-19 -105.5zM635 350q0 48 -13.5 89.5t-38.5 75.5l-330 -393q59 -37 132 -37q54 0 99.5 20t79 55.5t52.5 84t19 105.5z" />
    <glyph glyph-name="Ugrave" unicode="&#xd9;" horiz-adv-x="740" 
d="M370 -10q-65 0 -121 24.5t-96 67.5q-34 37 -53.5 87t-19.5 121v410h100v-415q0 -50 11.5 -82.5t32.5 -55.5q26 -29 63.5 -45.5t82.5 -16.5t82.5 16.5t63.5 45.5q21 23 32.5 55.5t11.5 82.5v415h100v-410q0 -71 -19.5 -121t-53.5 -87q-40 -43 -96 -67.5t-121 -24.5z
M340 750l-105 150h105l65 -150h-65z" />
    <glyph glyph-name="Uacute" unicode="&#xda;" horiz-adv-x="740" 
d="M370 -10q-65 0 -121 24.5t-96 67.5q-34 37 -53.5 87t-19.5 121v410h100v-415q0 -50 11.5 -82.5t32.5 -55.5q26 -29 63.5 -45.5t82.5 -16.5t82.5 16.5t63.5 45.5q21 23 32.5 55.5t11.5 82.5v415h100v-410q0 -71 -19.5 -121t-53.5 -87q-40 -43 -96 -67.5t-121 -24.5z
M335 750l65 150h105l-105 -150h-65z" />
    <glyph glyph-name="Ucircumflex" unicode="&#xdb;" horiz-adv-x="740" 
d="M370 -10q-65 0 -121 24.5t-96 67.5q-34 37 -53.5 87t-19.5 121v410h100v-415q0 -50 11.5 -82.5t32.5 -55.5q26 -29 63.5 -45.5t82.5 -16.5t82.5 16.5t63.5 45.5q21 23 32.5 55.5t11.5 82.5v415h100v-410q0 -71 -19.5 -121t-53.5 -87q-40 -43 -96 -67.5t-121 -24.5z
M220 750l95 150h110l95 -150h-65l-85 94l-85 -94h-65z" />
    <glyph glyph-name="Udieresis" unicode="&#xdc;" horiz-adv-x="740" 
d="M370 -10q-65 0 -121 24.5t-96 67.5q-34 37 -53.5 87t-19.5 121v410h100v-415q0 -50 11.5 -82.5t32.5 -55.5q26 -29 63.5 -45.5t82.5 -16.5t82.5 16.5t63.5 45.5q21 23 32.5 55.5t11.5 82.5v415h100v-410q0 -71 -19.5 -121t-53.5 -87q-40 -43 -96 -67.5t-121 -24.5z
M215 817q0 26 18 44.5t44 18.5t44.5 -18.5t18.5 -44.5t-18.5 -44t-44.5 -18t-44 18t-18 44zM400 817q0 26 18 44.5t44 18.5t44.5 -18.5t18.5 -44.5t-18.5 -44t-44.5 -18t-44 18t-18 44z" />
    <glyph glyph-name="Yacute" unicode="&#xdd;" horiz-adv-x="600" 
d="M350 320v-320h-100v320l-240 380h112l178 -281l178 281h112zM265 750l65 150h105l-105 -150h-65z" />
    <glyph glyph-name="Thorn" unicode="&#xde;" horiz-adv-x="600" 
d="M350 250q36 0 57 8.5t35 22.5q13 14 20.5 31.5t7.5 37.5t-7.5 37.5t-20.5 31.5q-14 14 -35 22.5t-57 8.5h-160v-200h160zM355 545q51 0 85.5 -12t60.5 -34q32 -27 50.5 -65.5t18.5 -83.5t-18.5 -83.5t-50.5 -65.5q-26 -22 -60.5 -34t-85.5 -12h-165v-155h-100v700h100
v-155h165z" />
    <glyph glyph-name="germandbls" unicode="&#xdf;" 
d="M265 91q25 -11 53 -11q29 0 53 10t41 28t26.5 41.5t9.5 50.5q0 26 -9 48.5t-25 39.5q-18 20 -45 31t-71 11h-38v90h4q32 0 52.5 7t34.5 19q15 14 24 33t9 41q0 41 -28 70.5t-70 29.5q-23 0 -44.5 -9t-35.5 -26q-11 -13 -18.5 -32t-7.5 -53v-510h-95v510q0 51 13 86t36 60
q27 30 65 47t83 17q40 0 76 -15t63 -40.5t42.5 -60.5t15.5 -74q0 -35 -14 -68.5t-39 -56.5q54 -28 86.5 -79.5t32.5 -115.5q0 -45 -16.5 -85t-46 -70t-70 -47.5t-87.5 -17.5q-50 0 -96 22z" />
    <glyph glyph-name="agrave" unicode="&#xe0;" horiz-adv-x="605" 
d="M428 43q-29 -26 -66 -39.5t-79 -13.5q-32 0 -63 8.5t-55 22.5q-54 32 -87 87.5t-33 126.5t33.5 127t87.5 88q24 14 53 22t62 8q40 0 77.5 -12.5t69.5 -40.5v43h92v-470h-92v43zM425 323q-22 29 -56.5 48t-77.5 19q-34 0 -62 -12.5t-47.5 -34t-30.5 -49.5t-11 -59
q0 -32 11.5 -60t32.5 -49t49.5 -33.5t62.5 -12.5q36 0 70.5 17.5t58.5 49.5v176zM307 550l-105 150h105l65 -150h-65z" />
    <glyph glyph-name="aacute" unicode="&#xe1;" horiz-adv-x="605" 
d="M428 43q-29 -26 -66 -39.5t-79 -13.5q-32 0 -63 8.5t-55 22.5q-54 32 -87 87.5t-33 126.5t33.5 127t87.5 88q24 14 53 22t62 8q40 0 77.5 -12.5t69.5 -40.5v43h92v-470h-92v43zM425 323q-22 29 -56.5 48t-77.5 19q-34 0 -62 -12.5t-47.5 -34t-30.5 -49.5t-11 -59
q0 -32 11.5 -60t32.5 -49t49.5 -33.5t62.5 -12.5q36 0 70.5 17.5t58.5 49.5v176zM252 550l65 150h105l-105 -150h-65z" />
    <glyph glyph-name="acircumflex" unicode="&#xe2;" horiz-adv-x="605" 
d="M428 43q-29 -26 -66 -39.5t-79 -13.5q-32 0 -63 8.5t-55 22.5q-54 32 -87 87.5t-33 126.5t33.5 127t87.5 88q24 14 53 22t62 8q40 0 77.5 -12.5t69.5 -40.5v43h92v-470h-92v43zM425 323q-22 29 -56.5 48t-77.5 19q-34 0 -62 -12.5t-47.5 -34t-30.5 -49.5t-11 -59
q0 -32 11.5 -60t32.5 -49t49.5 -33.5t62.5 -12.5q36 0 70.5 17.5t58.5 49.5v176zM157 550l95 150h110l95 -150h-65l-85 94l-85 -94h-65z" />
    <glyph glyph-name="atilde" unicode="&#xe3;" horiz-adv-x="605" 
d="M428 43q-29 -26 -66 -39.5t-79 -13.5q-32 0 -63 8.5t-55 22.5q-54 32 -87 87.5t-33 126.5t33.5 127t87.5 88q24 14 53 22t62 8q40 0 77.5 -12.5t69.5 -40.5v43h92v-470h-92v43zM425 323q-22 29 -56.5 48t-77.5 19q-34 0 -62 -12.5t-47.5 -34t-30.5 -49.5t-11 -59
q0 -32 11.5 -60t32.5 -49t49.5 -33.5t62.5 -12.5q36 0 70.5 17.5t58.5 49.5v176zM131 581q1 22 8.5 42t20.5 35t31 23.5t41 8.5q19 0 37 -7t35 -15.5t33 -15.5t31 -7q17 0 25.5 11.5t12.5 33.5l65 -21q-1 -22 -8.5 -42t-20.5 -35t-31.5 -23.5t-40.5 -8.5q-19 0 -37 7
t-35 15.5t-33 15.5t-31 7q-17 0 -25.5 -11.5t-12.5 -33.5z" />
    <glyph glyph-name="adieresis" unicode="&#xe4;" horiz-adv-x="605" 
d="M428 43q-29 -26 -66 -39.5t-79 -13.5q-32 0 -63 8.5t-55 22.5q-54 32 -87 87.5t-33 126.5t33.5 127t87.5 88q24 14 53 22t62 8q40 0 77.5 -12.5t69.5 -40.5v43h92v-470h-92v43zM425 323q-22 29 -56.5 48t-77.5 19q-34 0 -62 -12.5t-47.5 -34t-30.5 -49.5t-11 -59
q0 -32 11.5 -60t32.5 -49t49.5 -33.5t62.5 -12.5q36 0 70.5 17.5t58.5 49.5v176zM142 617q0 26 18 44.5t44 18.5t44.5 -18.5t18.5 -44.5t-18.5 -44t-44.5 -18t-44 18t-18 44zM327 617q0 26 18 44.5t44 18.5t44.5 -18.5t18.5 -44.5t-18.5 -44t-44.5 -18t-44 18t-18 44z" />
    <glyph glyph-name="aring" unicode="&#xe5;" horiz-adv-x="605" 
d="M428 43q-29 -26 -66 -39.5t-79 -13.5q-32 0 -63 8.5t-55 22.5q-54 32 -87 87.5t-33 126.5t33.5 127t87.5 88q24 14 53 22t62 8q40 0 77.5 -12.5t69.5 -40.5v43h92v-470h-92v43zM425 323q-22 29 -56.5 48t-77.5 19q-34 0 -62 -12.5t-47.5 -34t-30.5 -49.5t-11 -59
q0 -32 11.5 -60t32.5 -49t49.5 -33.5t62.5 -12.5q36 0 70.5 17.5t58.5 49.5v176zM197 630q0 42 29 71t71 29t71 -29t29 -71t-29 -71t-71 -29t-71 29t-29 71zM257 630q0 -17 11.5 -28.5t28.5 -11.5t28.5 11.5t11.5 28.5t-11.5 28.5t-28.5 11.5t-28.5 -11.5t-11.5 -28.5z" />
    <glyph glyph-name="ae" unicode="&#xe6;" horiz-adv-x="929" 
d="M428 43q-29 -26 -66 -39.5t-79 -13.5q-32 0 -63 8.5t-55 22.5q-54 32 -87 87.5t-33 126.5t33.5 127t87.5 88q24 14 53 22t62 8q40 0 77.5 -12.5t69.5 -40.5v43h84v-43q28 25 63.5 39t77.5 14q48 0 90 -19t73.5 -52t49.5 -77.5t18 -96.5v-8t-1 -12h-367q3 -30 16 -55.5
t34.5 -45t49.5 -30.5t60 -11q25 0 45 6t36 15t28.5 20.5t22.5 22.5l62 -59q-26 -33 -74 -60.5t-118 -27.5q-48 0 -90.5 16.5t-75.5 47.5v-54h-84v43zM425 323q-22 29 -56.5 48t-77.5 19q-34 0 -62 -12.5t-47.5 -34t-30.5 -49.5t-11 -59q0 -32 11.5 -60t32.5 -49t49.5 -33.5
t62.5 -12.5q36 0 70.5 17.5t58.5 49.5v176zM657 397q-48 0 -85.5 -28t-50.5 -74h264q-6 22 -18.5 41t-29.5 32.5t-37.5 21t-42.5 7.5z" />
    <glyph glyph-name="ccedilla" unicode="&#xe7;" horiz-adv-x="530" 
d="M505 100q-26 -42 -72.5 -71t-102.5 -36l-26 -133h-105l61 133q-47 6 -86.5 26.5t-68 52.5t-44.5 73.5t-16 89.5q0 52 18.5 97t51 78t77.5 51.5t98 18.5q62 0 114.5 -28t85.5 -74l-70 -59q-20 27 -52.5 49t-77.5 22q-32 0 -59.5 -11.5t-47.5 -32.5t-31.5 -49.5
t-11.5 -61.5q0 -35 11.5 -63.5t32.5 -48.5t49.5 -31.5t62.5 -11.5q47 0 80 21.5t56 51.5z" />
    <glyph glyph-name="egrave" unicode="&#xe8;" horiz-adv-x="545" 
d="M137 215q2 -30 14.5 -55.5t32.5 -45t47 -30.5t58 -11q52 0 83.5 20.5t51.5 43.5l62 -59q-26 -34 -76 -61t-122 -27q-51 0 -95.5 18.5t-77.5 51t-51.5 77.5t-18.5 98t17 98t47.5 77.5t72.5 51t92 18.5q49 0 90.5 -18.5t71.5 -51.5t47 -78t17 -97v-8t-1 -12h-362zM277 397
q-46 0 -83 -28t-49 -74h256q-5 22 -17.5 41t-29 32.5t-36.5 21t-41 7.5zM262 550l-105 150h105l65 -150h-65z" />
    <glyph glyph-name="eacute" unicode="&#xe9;" horiz-adv-x="545" 
d="M137 215q2 -30 14.5 -55.5t32.5 -45t47 -30.5t58 -11q52 0 83.5 20.5t51.5 43.5l62 -59q-26 -34 -76 -61t-122 -27q-51 0 -95.5 18.5t-77.5 51t-51.5 77.5t-18.5 98t17 98t47.5 77.5t72.5 51t92 18.5q49 0 90.5 -18.5t71.5 -51.5t47 -78t17 -97v-8t-1 -12h-362zM277 397
q-46 0 -83 -28t-49 -74h256q-5 22 -17.5 41t-29 32.5t-36.5 21t-41 7.5zM237 550l65 150h105l-105 -150h-65z" />
    <glyph glyph-name="ecircumflex" unicode="&#xea;" horiz-adv-x="545" 
d="M137 215q2 -30 14.5 -55.5t32.5 -45t47 -30.5t58 -11q52 0 83.5 20.5t51.5 43.5l62 -59q-26 -34 -76 -61t-122 -27q-51 0 -95.5 18.5t-77.5 51t-51.5 77.5t-18.5 98t17 98t47.5 77.5t72.5 51t92 18.5q49 0 90.5 -18.5t71.5 -51.5t47 -78t17 -97v-8t-1 -12h-362zM277 397
q-46 0 -83 -28t-49 -74h256q-5 22 -17.5 41t-29 32.5t-36.5 21t-41 7.5zM127 550l95 150h110l95 -150h-65l-85 94l-85 -94h-65z" />
    <glyph glyph-name="edieresis" unicode="&#xeb;" horiz-adv-x="545" 
d="M137 215q2 -30 14.5 -55.5t32.5 -45t47 -30.5t58 -11q52 0 83.5 20.5t51.5 43.5l62 -59q-26 -34 -76 -61t-122 -27q-51 0 -95.5 18.5t-77.5 51t-51.5 77.5t-18.5 98t17 98t47.5 77.5t72.5 51t92 18.5q49 0 90.5 -18.5t71.5 -51.5t47 -78t17 -97v-8t-1 -12h-362zM277 397
q-46 0 -83 -28t-49 -74h256q-5 22 -17.5 41t-29 32.5t-36.5 21t-41 7.5zM117 617q0 26 18 44.5t44 18.5t44.5 -18.5t18.5 -44.5t-18.5 -44t-44.5 -18t-44 18t-18 44zM302 617q0 26 18 44.5t44 18.5t44.5 -18.5t18.5 -44.5t-18.5 -44t-44.5 -18t-44 18t-18 44z" />
    <glyph glyph-name="igrave" unicode="&#xec;" horiz-adv-x="265" 
d="M85 470h95v-470h-95v470zM116 550l-105 150h105l65 -150h-65z" />
    <glyph glyph-name="iacute" unicode="&#xed;" horiz-adv-x="265" 
d="M85 470h95v-470h-95v470zM85 550l65 150h105l-105 -150h-65z" />
    <glyph glyph-name="icircumflex" unicode="&#xee;" horiz-adv-x="265" 
d="M85 470h95v-470h-95v470zM-17 550l95 150h110l95 -150h-65l-85 94l-85 -94h-65z" />
    <glyph glyph-name="idieresis" unicode="&#xef;" horiz-adv-x="265" 
d="M85 470h95v-470h-95v470zM-22 617q0 26 18 44.5t44 18.5t44.5 -18.5t18.5 -44.5t-18.5 -44t-44.5 -18t-44 18t-18 44zM163 617q0 26 18 44.5t44 18.5t44.5 -18.5t18.5 -44.5t-18.5 -44t-44.5 -18t-44 18t-18 44z" />
    <glyph glyph-name="eth" unicode="&#xf0;" horiz-adv-x="576" 
d="M182 501l-45 68l80 51l-59 90h111l26 -41l80 51l45 -68l-80 -51l120 -180q32 -48 51.5 -95t19.5 -91q0 -51 -18.5 -95.5t-51 -77.5t-77 -52.5t-96.5 -19.5t-96.5 19t-77 52.5t-51 78t-18.5 95.5t18 95.5t50.5 77.5t77 52.5t97.5 19.5q5 0 11 -0.5t12 -1.5l-49 74z
M288 390q-33 0 -60 -12t-46.5 -33t-30.5 -49.5t-11 -60.5t11 -60.5t30.5 -49.5t46.5 -33t60 -12t60 12t46.5 33t30.5 49.5t11 60.5t-14.5 68t-37.5 64q-17 9 -43 16t-53 7z" />
    <glyph glyph-name="ntilde" unicode="&#xf1;" horiz-adv-x="610" 
d="M177 425q19 18 54.5 36.5t86.5 18.5q52 0 96.5 -22.5t74.5 -60.5q23 -29 34.5 -67.5t11.5 -99.5v-230h-95v235q0 45 -7.5 69t-20.5 40q-17 21 -42.5 33.5t-54.5 12.5q-47 0 -80.5 -20.5t-54.5 -46.5v-323h-95v470h92v-45zM141 581q1 22 8.5 42t20.5 35t31 23.5t41 8.5
q19 0 37 -7t35 -15.5t33 -15.5t31 -7q17 0 25.5 11.5t12.5 33.5l65 -21q-1 -22 -8.5 -42t-20.5 -35t-31.5 -23.5t-40.5 -8.5q-19 0 -37 7t-35 15.5t-33 15.5t-31 7q-17 0 -25.5 -11.5t-12.5 -33.5z" />
    <glyph glyph-name="ograve" unicode="&#xf2;" horiz-adv-x="576" 
d="M45 235q0 52 18.5 97t51 78t77 51.5t96.5 18.5t96.5 -18.5t77 -51.5t51 -78t18.5 -97q0 -53 -18.5 -97.5t-51 -77.5t-77 -51.5t-96.5 -18.5t-96.5 18.5t-77 51.5t-51 77.5t-18.5 97.5zM140 235q0 -32 11 -60.5t30.5 -49.5t46.5 -33t60 -12t60 12t46.5 33t30.5 49.5
t11 60.5t-11 60.5t-30.5 49.5t-46.5 33t-60 12t-60 -12t-46.5 -33t-30.5 -49.5t-11 -60.5zM258 550l-105 150h105l65 -150h-65z" />
    <glyph glyph-name="oacute" unicode="&#xf3;" horiz-adv-x="576" 
d="M45 235q0 52 18.5 97t51 78t77 51.5t96.5 18.5t96.5 -18.5t77 -51.5t51 -78t18.5 -97q0 -53 -18.5 -97.5t-51 -77.5t-77 -51.5t-96.5 -18.5t-96.5 18.5t-77 51.5t-51 77.5t-18.5 97.5zM140 235q0 -32 11 -60.5t30.5 -49.5t46.5 -33t60 -12t60 12t46.5 33t30.5 49.5
t11 60.5t-11 60.5t-30.5 49.5t-46.5 33t-60 12t-60 -12t-46.5 -33t-30.5 -49.5t-11 -60.5zM253 550l65 150h105l-105 -150h-65z" />
    <glyph glyph-name="ocircumflex" unicode="&#xf4;" horiz-adv-x="576" 
d="M45 235q0 52 18.5 97t51 78t77 51.5t96.5 18.5t96.5 -18.5t77 -51.5t51 -78t18.5 -97q0 -53 -18.5 -97.5t-51 -77.5t-77 -51.5t-96.5 -18.5t-96.5 18.5t-77 51.5t-51 77.5t-18.5 97.5zM140 235q0 -32 11 -60.5t30.5 -49.5t46.5 -33t60 -12t60 12t46.5 33t30.5 49.5
t11 60.5t-11 60.5t-30.5 49.5t-46.5 33t-60 12t-60 -12t-46.5 -33t-30.5 -49.5t-11 -60.5zM138 550l95 150h110l95 -150h-65l-85 94l-85 -94h-65z" />
    <glyph glyph-name="otilde" unicode="&#xf5;" horiz-adv-x="576" 
d="M45 235q0 52 18.5 97t51 78t77 51.5t96.5 18.5t96.5 -18.5t77 -51.5t51 -78t18.5 -97q0 -53 -18.5 -97.5t-51 -77.5t-77 -51.5t-96.5 -18.5t-96.5 18.5t-77 51.5t-51 77.5t-18.5 97.5zM140 235q0 -32 11 -60.5t30.5 -49.5t46.5 -33t60 -12t60 12t46.5 33t30.5 49.5
t11 60.5t-11 60.5t-30.5 49.5t-46.5 33t-60 12t-60 -12t-46.5 -33t-30.5 -49.5t-11 -60.5zM119 581q1 22 8.5 42t20.5 35t31 23.5t41 8.5q19 0 37 -7t35 -15.5t33 -15.5t31 -7q17 0 25.5 11.5t12.5 33.5l65 -21q-1 -22 -8.5 -42t-20.5 -35t-31.5 -23.5t-40.5 -8.5
q-19 0 -37 7t-35 15.5t-33 15.5t-31 7q-17 0 -25.5 -11.5t-12.5 -33.5z" />
    <glyph glyph-name="odieresis" unicode="&#xf6;" horiz-adv-x="576" 
d="M45 235q0 52 18.5 97t51 78t77 51.5t96.5 18.5t96.5 -18.5t77 -51.5t51 -78t18.5 -97q0 -53 -18.5 -97.5t-51 -77.5t-77 -51.5t-96.5 -18.5t-96.5 18.5t-77 51.5t-51 77.5t-18.5 97.5zM140 235q0 -32 11 -60.5t30.5 -49.5t46.5 -33t60 -12t60 12t46.5 33t30.5 49.5
t11 60.5t-11 60.5t-30.5 49.5t-46.5 33t-60 12t-60 -12t-46.5 -33t-30.5 -49.5t-11 -60.5zM133 617q0 26 18 44.5t44 18.5t44.5 -18.5t18.5 -44.5t-18.5 -44t-44.5 -18t-44 18t-18 44zM318 617q0 26 18 44.5t44 18.5t44.5 -18.5t18.5 -44.5t-18.5 -44t-44.5 -18t-44 18
t-18 44z" />
    <glyph glyph-name="divide" unicode="&#xf7;" horiz-adv-x="540" 
d="M490 305v-90h-440v90h440zM200 100q0 29 20.5 49.5t49.5 20.5t49.5 -20.5t20.5 -49.5t-20.5 -49.5t-49.5 -20.5t-49.5 20.5t-20.5 49.5zM200 420q0 29 20.5 49.5t49.5 20.5t49.5 -20.5t20.5 -49.5t-20.5 -49.5t-49.5 -20.5t-49.5 20.5t-20.5 49.5z" />
    <glyph glyph-name="oslash" unicode="&#xf8;" horiz-adv-x="576" 
d="M45 235q0 52 18.5 97t51 78t77 51.5t96.5 18.5q35 0 65.5 -8.5t57.5 -23.5l28 32h111l-74 -87q26 -32 40.5 -72t14.5 -86q0 -53 -18.5 -97.5t-51 -77.5t-77 -51.5t-96.5 -18.5q-69 0 -123 31l-26 -31h-112l72 86q-26 32 -40 72t-14 87zM140 235q0 -46 22 -84l189 225
q-30 14 -63 14t-60 -12t-46.5 -33t-30.5 -49.5t-11 -60.5zM436 235q0 45 -22 83l-189 -225q29 -13 63 -13q33 0 60 12t46.5 33t30.5 49.5t11 60.5z" />
    <glyph glyph-name="ugrave" unicode="&#xf9;" horiz-adv-x="600" 
d="M285 -10q-51 0 -94.5 21t-72.5 58q-22 27 -32.5 64t-10.5 97v240h95v-255q0 -36 7 -57.5t20 -36.5q16 -19 40 -30t51 -11q44 0 78 21.5t54 45.5v323h95v-470h-92v43q-8 -8 -21.5 -17t-31 -17t-39.5 -13.5t-46 -5.5zM275 550l-105 150h105l65 -150h-65z" />
    <glyph glyph-name="uacute" unicode="&#xfa;" horiz-adv-x="600" 
d="M285 -10q-51 0 -94.5 21t-72.5 58q-22 27 -32.5 64t-10.5 97v240h95v-255q0 -36 7 -57.5t20 -36.5q16 -19 40 -30t51 -11q44 0 78 21.5t54 45.5v323h95v-470h-92v43q-8 -8 -21.5 -17t-31 -17t-39.5 -13.5t-46 -5.5zM260 550l65 150h105l-105 -150h-65z" />
    <glyph glyph-name="ucircumflex" unicode="&#xfb;" horiz-adv-x="600" 
d="M285 -10q-51 0 -94.5 21t-72.5 58q-22 27 -32.5 64t-10.5 97v240h95v-255q0 -36 7 -57.5t20 -36.5q16 -19 40 -30t51 -11q44 0 78 21.5t54 45.5v323h95v-470h-92v43q-8 -8 -21.5 -17t-31 -17t-39.5 -13.5t-46 -5.5zM145 550l95 150h110l95 -150h-65l-85 94l-85 -94h-65z
" />
    <glyph glyph-name="udieresis" unicode="&#xfc;" horiz-adv-x="600" 
d="M285 -10q-51 0 -94.5 21t-72.5 58q-22 27 -32.5 64t-10.5 97v240h95v-255q0 -36 7 -57.5t20 -36.5q16 -19 40 -30t51 -11q44 0 78 21.5t54 45.5v323h95v-470h-92v43q-8 -8 -21.5 -17t-31 -17t-39.5 -13.5t-46 -5.5zM140 617q0 26 18 44.5t44 18.5t44.5 -18.5t18.5 -44.5
t-18.5 -44t-44.5 -18t-44 18t-18 44zM325 617q0 26 18 44.5t44 18.5t44.5 -18.5t18.5 -44.5t-18.5 -44t-44.5 -18t-44 18t-18 44z" />
    <glyph glyph-name="yacute" unicode="&#xfd;" horiz-adv-x="509" 
d="M84 -240l127 289l-201 421h102l147 -310l135 310h100l-309 -710h-101zM222 550l65 150h105l-105 -150h-65z" />
    <glyph glyph-name="thorn" unicode="&#xfe;" horiz-adv-x="605" 
d="M180 710v-281q32 26 69 38.5t75 12.5q33 0 62 -8t53 -22q54 -32 87.5 -88t33.5 -127t-33 -126.5t-87 -87.5q-24 -14 -55 -22.5t-63 -8.5q-83 0 -142 51v-281h-95v950h95zM180 147q24 -32 58.5 -49.5t70.5 -17.5q34 0 62.5 12.5t49.5 33.5t32.5 49t11.5 60q0 31 -11 59
t-30.5 49.5t-47.5 34t-62 12.5q-43 0 -77.5 -19t-56.5 -48v-176z" />
    <glyph glyph-name="ydieresis" unicode="&#xff;" horiz-adv-x="509" 
d="M84 -240l127 289l-201 421h102l147 -310l135 310h100l-309 -710h-101zM94 617q0 26 18 44.5t44 18.5t44.5 -18.5t18.5 -44.5t-18.5 -44t-44.5 -18t-44 18t-18 44zM279 617q0 26 18 44.5t44 18.5t44.5 -18.5t18.5 -44.5t-18.5 -44t-44.5 -18t-44 18t-18 44z" />
    <glyph glyph-name="dotlessi" unicode="&#x131;" horiz-adv-x="265" 
d="M85 470h95v-470h-95v470z" />
    <glyph glyph-name="Lslash" unicode="&#x141;" horiz-adv-x="520" 
d="M190 460l150 87v-108l-150 -87v-257h310v-95h-410v294l-100 -57v108l100 57v298h100v-240z" />
    <glyph glyph-name="lslash" unicode="&#x142;" horiz-adv-x="265" 
d="M85 298l-100 -58v104l100 58v308h95v-253l100 58v-104l-100 -58v-353h-95v298z" />
    <glyph glyph-name="OE" unicode="&#x152;" horiz-adv-x="1085" 
d="M35 350q0 76 27 142t74 114.5t111 76t138 27.5q75 0 139 -28.5t111 -78.5v97h400v-95h-300v-180h230v-95h-230v-235h310v-95h-410v97q-47 -51 -111 -79t-139 -28q-74 0 -138 27.5t-111 76t-74 114t-27 142.5zM385 85q54 0 99.5 20t79 55.5t52.5 84t19 105.5t-19 105.5
t-52.5 84t-79 55.5t-99.5 20t-99.5 -20t-79 -55.5t-52.5 -84t-19 -105.5t19 -105.5t52.5 -84t79 -55.5t99.5 -20z" />
    <glyph glyph-name="oe" unicode="&#x153;" horiz-adv-x="936" 
d="M528 215q2 -30 14.5 -55.5t32.5 -45t47 -30.5t58 -11q52 0 83.5 20.5t51.5 43.5l62 -59q-26 -34 -76 -61t-122 -27q-63 0 -113.5 27t-82.5 74q-31 -46 -81.5 -73.5t-113.5 -27.5q-52 0 -96.5 18.5t-77 51.5t-51 77.5t-18.5 97.5q0 52 18.5 97t51 78t77 51.5t96.5 18.5
q62 0 111.5 -26.5t81.5 -71.5q29 45 76.5 71.5t107.5 26.5q49 0 90.5 -18.5t71.5 -51.5t47 -78t17 -97v-8t-1 -12h-362zM140 235q0 -32 11 -60.5t30.5 -49.5t46.5 -33t60 -12t60 12t46.5 33t30.5 49.5t11 60.5t-11 60.5t-30.5 49.5t-46.5 33t-60 12t-60 -12t-46.5 -33
t-30.5 -49.5t-11 -60.5zM668 397q-46 0 -83 -28t-49 -74h256q-5 22 -17.5 41t-29 32.5t-36.5 21t-41 7.5z" />
    <glyph glyph-name="Scaron" unicode="&#x160;" horiz-adv-x="532" 
d="M99 175q31 -38 74 -64t97 -26q24 0 46.5 7.5t39 21.5t26.5 33t10 43q0 40 -24.5 64.5t-61 42.5t-78.5 34t-77 39q-38 25 -63.5 62t-25.5 92q0 38 16 72t44.5 59.5t67 40t84.5 14.5q33 0 61.5 -6.5t52 -17t42 -22.5t32.5 -24l-59 -73q-57 48 -125 48q-22 0 -42.5 -6
t-37 -18t-26.5 -29.5t-10 -40.5q0 -33 24.5 -55t61 -39.5t78 -34.5t75.5 -39q18 -12 34 -27t29 -34.5t20.5 -44t7.5 -54.5q0 -46 -17 -83.5t-46 -64t-68.5 -41t-85.5 -14.5q-72 0 -135 30t-110 87zM199 900l85 -94l85 94h65l-95 -150h-110l-95 150h65z" />
    <glyph glyph-name="scaron" unicode="&#x161;" horiz-adv-x="455" 
d="M89 125q67 -52 139 -52q31 0 56.5 15.5t25.5 43.5q0 20 -13.5 32t-34.5 19.5t-47 13.5t-52 15q-21 7 -40.5 17.5t-34.5 25.5t-24 34t-9 44q0 38 15.5 65.5t40 45.5t55.5 27t63 9q52 0 90 -14.5t66 -37.5l-49 -68q-22 17 -47 27t-54 10q-35 0 -60 -15.5t-25 -43.5
q0 -24 24.5 -35t59.5 -20q28 -7 58 -17.5t55 -27.5t41.5 -42.5t16.5 -61.5q0 -33 -14.5 -60t-38.5 -45.5t-56 -28.5t-66 -10q-110 0 -190 65zM147 700l85 -94l85 94h65l-95 -150h-110l-95 150h65z" />
    <glyph glyph-name="Ydieresis" unicode="&#x178;" horiz-adv-x="600" 
d="M350 320v-320h-100v320l-240 380h112l178 -281l178 281h112zM145 817q0 26 18 44.5t44 18.5t44.5 -18.5t18.5 -44.5t-18.5 -44t-44.5 -18t-44 18t-18 44zM330 817q0 26 18 44.5t44 18.5t44.5 -18.5t18.5 -44.5t-18.5 -44t-44.5 -18t-44 18t-18 44z" />
    <glyph glyph-name="Zcaron" unicode="&#x17d;" 
d="M70 700h470v-65l-364 -540h384v-95h-520v65l366 540h-336v95zM215 900l85 -94l85 94h65l-95 -150h-110l-95 150h65z" />
    <glyph glyph-name="zcaron" unicode="&#x17e;" horiz-adv-x="470" 
d="M298 385h-243v85h375v-60l-259 -325h279v-85h-410v60zM170 700l85 -94l85 94h65l-95 -150h-110l-95 150h65z" />
    <glyph glyph-name="longs" unicode="&#x17f;" horiz-adv-x="365" 
d="M180 0h-95v510q0 48 7 78.5t23 53.5q26 37 66 57.5t88 20.5q53 0 96 -20l-35 -83q-12 5 -27 9t-33 4q-20 0 -40 -8.5t-32 -24.5q-10 -13 -14 -32.5t-4 -51.5v-513z" />
    <glyph glyph-name="florin" unicode="&#x192;" horiz-adv-x="526" 
d="M157 -44q8 28 14 69t10.5 88.5t8 99t8.5 102.5h-152v85h160q4 34 8.5 64t11.5 55q9 36 23.5 69t37.5 58q28 31 66.5 47.5t87.5 16.5q18 0 37 -3t38 -11l-26 -83q-11 3 -22.5 5t-26.5 2q-52 0 -83 -35q-25 -30 -39 -81q-6 -20 -10.5 -46.5t-8.5 -57.5h152v-85h-161
q-4 -49 -8 -101t-8.5 -101.5t-10 -93.5t-14.5 -78q-9 -36 -23.5 -69t-37.5 -58q-28 -31 -66.5 -47.5t-87.5 -16.5q-18 0 -37 3t-38 11l26 83q11 -3 22.5 -5t26.5 -2q52 0 83 35q25 30 39 81z" />
    <glyph glyph-name="circumflex" unicode="&#x2c6;" horiz-adv-x="440" 
d="M70 550l95 150h110l95 -150h-65l-85 94l-85 -94h-65z" />
    <glyph glyph-name="caron" unicode="&#x2c7;" horiz-adv-x="440" 
d="M135 700l85 -94l85 94h65l-95 -150h-110l-95 150h65z" />
    <glyph glyph-name="uni02C9" unicode="&#x2c9;" horiz-adv-x="500" 
d="M370 660v-85h-300v85h300z" />
    <glyph glyph-name="breve" unicode="&#x2d8;" horiz-adv-x="420" 
d="M350 700q0 -29 -11 -54.5t-30 -44.5t-44.5 -30t-54.5 -11t-54.5 11t-44.5 30t-30 44.5t-11 54.5h80q0 -25 17.5 -42.5t42.5 -17.5t42.5 17.5t17.5 42.5h80z" />
    <glyph glyph-name="dotaccent" unicode="&#x2d9;" horiz-adv-x="265" 
d="M70 637q0 26 18 44.5t44 18.5t44.5 -18.5t18.5 -44.5t-18.5 -44t-44.5 -18t-44 18t-18 44z" />
    <glyph glyph-name="ring" unicode="&#x2da;" horiz-adv-x="340" 
d="M70 630q0 42 29 71t71 29t71 -29t29 -71t-29 -71t-71 -29t-71 29t-29 71zM130 630q0 -17 11.5 -28.5t28.5 -11.5t28.5 11.5t11.5 28.5t-11.5 28.5t-28.5 11.5t-28.5 -11.5t-11.5 -28.5z" />
    <glyph glyph-name="ogonek" unicode="&#x2db;" horiz-adv-x="320" 
d="M203 10q-5 -7 -11.5 -18t-12.5 -24t-10 -27t-4 -27q0 -22 13.5 -33t33.5 -11q8 0 13.5 1t9.5 3l15 -85q-5 -2 -19 -5.5t-36 -3.5q-27 0 -50 9.5t-39.5 25.5t-26 38t-9.5 47q0 38 13.5 67t24.5 43h95z" />
    <glyph glyph-name="tilde" unicode="&#x2dc;" horiz-adv-x="480" 
d="M70 581q1 22 8.5 42t20.5 35t31 23.5t41 8.5q19 0 37 -7t35 -15.5t33 -15.5t31 -7q17 0 25.5 11.5t12.5 33.5l65 -21q-1 -22 -8.5 -42t-20.5 -35t-31.5 -23.5t-40.5 -8.5q-19 0 -37 7t-35 15.5t-33 15.5t-31 7q-17 0 -25.5 -11.5t-12.5 -33.5z" />
    <glyph glyph-name="hungarumlaut" unicode="&#x2dd;" horiz-adv-x="515" 
d="M90 550l65 150h105l-105 -150h-65zM275 550l65 150h105l-105 -150h-65z" />
    <glyph glyph-name="uni0394" unicode="&#x394;" horiz-adv-x="570" 
d="M318 700l247 -640v-60h-560v60l247 640h66zM457 90l-172 446l-172 -446h344z" />
    <glyph glyph-name="uni03A9" unicode="&#x3a9;" horiz-adv-x="760" 
d="M380 620q-54 0 -100.5 -20.5t-81 -55.5t-54 -82t-19.5 -100q0 -74 23.5 -130t52.5 -94q33 -45 77 -78v-60h-248v90h92q-26 34 -46 76q-17 36 -31.5 86t-14.5 110q0 74 27.5 137.5t75 110.5t111.5 73.5t136 26.5t136 -26.5t111.5 -73.5t75 -110.5t27.5 -137.5
q0 -60 -14.5 -110t-31.5 -86q-20 -42 -46 -76h92v-90h-248v60q43 33 76 78q14 19 28 42.5t25 51.5t17.5 60.5t6.5 69.5q0 53 -19.5 100t-54 82t-81 55.5t-100.5 20.5z" />
    <glyph glyph-name="uni03BC" unicode="&#x3bc;" horiz-adv-x="610" 
d="M295 -10q-20 0 -37.5 4.5t-32.5 11t-26.5 14.5t-18.5 15v-275h-95v710h95v-255q0 -36 7 -57.5t20 -36.5q16 -19 39 -30t49 -11q47 0 79.5 21t55.5 46v323h95v-470h-92v43q-8 -8 -21.5 -17t-31 -17t-39.5 -13.5t-46 -5.5z" />
    <glyph glyph-name="pi" unicode="&#x3c0;" horiz-adv-x="575" 
d="M433 -10q-24 12 -38.5 29t-22 38t-10 44.5t-2.5 48.5v230h-100v-380h-95v374q-16 -3 -28 -9q-19 -9 -31.5 -22.5t-23.5 -28.5l-77 46q14 26 39 51t63 41q20 8 46 13t61 5h341v-90h-100v-227q0 -30 4 -50.5t28 -34.5z" />
    <glyph glyph-name="endash" unicode="&#x2013;" horiz-adv-x="490" 
d="M470 295v-80h-450v80h450z" />
    <glyph glyph-name="emdash" unicode="&#x2014;" horiz-adv-x="790" 
d="M770 295v-80h-750v80h750z" />
    <glyph glyph-name="quoteleft" unicode="&#x2018;" horiz-adv-x="285" 
d="M50 450l120 260h65l-75 -260h-110z" />
    <glyph glyph-name="quoteright" unicode="&#x2019;" horiz-adv-x="285" 
d="M235 710l-120 -260h-65l75 260h110z" />
    <glyph glyph-name="quotesinglbase" unicode="&#x201a;" horiz-adv-x="285" 
d="M235 120l-120 -260h-65l75 260h110z" />
    <glyph glyph-name="quotedblleft" unicode="&#x201c;" horiz-adv-x="495" 
d="M260 450l120 260h65l-75 -260h-110zM50 450l120 260h65l-75 -260h-110z" />
    <glyph glyph-name="quotedblright" unicode="&#x201d;" horiz-adv-x="495" 
d="M235 710l-120 -260h-65l75 260h110zM445 710l-120 -260h-65l75 260h110z" />
    <glyph glyph-name="quotedblbase" unicode="&#x201e;" horiz-adv-x="495" 
d="M235 120l-120 -260h-65l75 260h110zM445 120l-120 -260h-65l75 260h110z" />
    <glyph glyph-name="dagger" unicode="&#x2020;" horiz-adv-x="525" 
d="M215 460v240h95v-240h165v-90h-165v-570h-95v570h-165v90h165z" />
    <glyph glyph-name="daggerdbl" unicode="&#x2021;" horiz-adv-x="525" 
d="M215 460v240h95v-240h165v-90h-165v-150h165v-90h-165v-330h-95v330h-165v90h165v150h-165v90h165z" />
    <glyph glyph-name="bullet" unicode="&#x2022;" horiz-adv-x="560" 
d="M80 235q0 41 16 77.5t43 63.5t63.5 43t77.5 16t77.5 -16t63.5 -43t43 -63.5t16 -77.5t-16 -77.5t-43 -63.5t-63.5 -43t-77.5 -16t-77.5 16t-63.5 43t-43 63.5t-16 77.5z" />
    <glyph glyph-name="ellipsis" unicode="&#x2026;" horiz-adv-x="930" 
d="M110 60q0 29 20.5 49.5t49.5 20.5t49.5 -20.5t20.5 -49.5t-20.5 -49.5t-49.5 -20.5t-49.5 20.5t-20.5 49.5zM405 60q0 29 20.5 49.5t49.5 20.5t49.5 -20.5t20.5 -49.5t-20.5 -49.5t-49.5 -20.5t-49.5 20.5t-20.5 49.5zM700 60q0 29 20.5 49.5t49.5 20.5t49.5 -20.5
t20.5 -49.5t-20.5 -49.5t-49.5 -20.5t-49.5 20.5t-20.5 49.5z" />
    <glyph glyph-name="perthousand" unicode="&#x2030;" horiz-adv-x="1215" 
d="M1155 175q0 -38 -13.5 -72t-37.5 -59t-57 -39.5t-72 -14.5q-42 0 -76.5 16t-58.5 45q-25 -29 -59 -45t-76 -16q-39 0 -72 14.5t-57 39.5t-37.5 59t-13.5 72t13.5 72t37.5 59t57 39.5t72 14.5q42 0 76 -16.5t59 -44.5q24 28 58.5 44.5t76.5 16.5q39 0 72 -14.5t57 -39.5
t37.5 -59t13.5 -72zM420 525q0 -38 -13.5 -72t-37.5 -59t-57 -39.5t-72 -14.5t-72 14.5t-57 39.5t-37.5 59t-13.5 72t13.5 72t37.5 59t57 39.5t72 14.5t72 -14.5t57 -39.5t37.5 -59t13.5 -72zM220 0l409 700h96l-409 -700h-96zM150 525q0 -42 24 -71t66 -29t66 29t24 71
t-24 71t-66 29t-66 -29t-24 -71zM705 75q42 0 66 29t24 71t-24 71t-66 29t-66 -29t-24 -71t24 -71t66 -29zM975 75q42 0 66 29t24 71t-24 71t-66 29t-66 -29t-24 -71t24 -71t66 -29z" />
    <glyph glyph-name="guilsinglleft" unicode="&#x2039;" horiz-adv-x="370" 
d="M330 50h-116l-134 165v50l134 165h116l-154 -190z" />
    <glyph glyph-name="guilsinglright" unicode="&#x203a;" horiz-adv-x="370" 
d="M194 240l-154 190h116l134 -165v-50l-134 -165h-116z" />
    <glyph glyph-name="fraction" unicode="&#x2044;" horiz-adv-x="505" 
d="M5 0l409 700h86l-409 -700h-86z" />
    <glyph glyph-name="uni2070" unicode="&#x2070;" horiz-adv-x="326" 
d="M221 520q0 25 -3 47t-10 38t-18.5 25.5t-28.5 9.5q-15 0 -26 -9.5t-17.5 -25.5t-9.5 -38t-3 -47t3 -47t9.5 -38t17.5 -25.5t26 -9.5q17 0 28.5 9.5t18.5 25.5t10 38t3 47zM296 520q0 -89 -34.5 -139.5t-99.5 -50.5q-64 0 -98 50.5t-34 139.5t34 139.5t98 50.5
q65 0 99.5 -50.5t34.5 -139.5z" />
    <glyph glyph-name="uni2074" unicode="&#x2074;" horiz-adv-x="337" 
d="M261 700v-213h61v-70h-61v-77h-75v77h-161v40l191 243h45zM186 487v66l-50 -66h50z" />
    <glyph glyph-name="uni2075" unicode="&#x2075;" horiz-adv-x="295" 
d="M41 502l28 198h190v-70h-124l-7 -50q8 1 10 1h6q27 0 50.5 -10t40 -27t26 -39.5t9.5 -47.5q0 -27 -10 -50t-28 -40.5t-42 -27t-52 -9.5q-37 0 -66.5 16t-46.5 42l58 40q10 -13 24 -20.5t31 -7.5q24 0 40.5 16t16.5 41q0 23 -15.5 40.5t-43.5 17.5q-25 0 -48 -20z" />
    <glyph glyph-name="uni2076" unicode="&#x2076;" horiz-adv-x="309" 
d="M163 581q28 -1 51.5 -11.5t40 -28t25.5 -39.5t9 -47q0 -27 -10.5 -49.5t-28.5 -39.5t-41.5 -26.5t-50.5 -9.5q-29 0 -53.5 10t-42 27t-27.5 39.5t-10 48.5q0 41 26 81l104 164h83zM157 512q-21 0 -38 -10q-7 -8 -13 -19.5t-6 -27.5q0 -24 16.5 -40.5t41.5 -16.5
q24 0 40 16.5t16 40.5t-16 40.5t-41 16.5z" />
    <glyph glyph-name="uni2077" unicode="&#x2077;" horiz-adv-x="267" 
d="M10 700h247v-40l-145 -320h-79l133 290h-156v70z" />
    <glyph glyph-name="uni2078" unicode="&#x2078;" horiz-adv-x="308" 
d="M213 454q0 23 -15.5 39t-42.5 16q-28 0 -44 -16t-16 -39t16 -38.5t44 -15.5q27 0 42.5 15.5t15.5 38.5zM119 604q0 -15 9 -25.5t26 -10.5t26 10.5t9 25.5q0 16 -9 26t-26 10t-26 -10t-9 -26zM44 608q0 21 8.5 40t23 32.5t35 21.5t44.5 8q47 0 78 -29.5t31 -72.5
q0 -19 -7.5 -35.5t-18.5 -29.5q23 -17 36.5 -41t13.5 -52q0 -25 -10 -46.5t-28 -38t-42.5 -26t-52.5 -9.5q-29 0 -53.5 9.5t-42.5 26t-28.5 38t-10.5 46.5q0 28 14 52t36 41q-11 13 -18.5 29.5t-7.5 35.5z" />
    <glyph glyph-name="uni2079" unicode="&#x2079;" horiz-adv-x="309" 
d="M146 459q-29 1 -52 11.5t-39.5 28t-25.5 39.5t-9 47q0 27 10.5 49.5t28.5 39.5t41.5 26.5t50.5 9.5q29 0 53.5 -10t42 -27t27.5 -39.5t10 -48.5q0 -41 -26 -81l-104 -164h-83zM152 526q21 0 38 10q7 8 13 19.5t6 27.5q0 24 -16.5 40.5t-41.5 16.5q-24 0 -40 -16.5
t-16 -40.5t16 -40.5t41 -16.5z" />
    <glyph glyph-name="uni2080" unicode="&#x2080;" horiz-adv-x="326" 
d="M221 180q0 25 -3 47t-10 38t-18.5 25.5t-28.5 9.5q-15 0 -26 -9.5t-17.5 -25.5t-9.5 -38t-3 -47t3 -47t9.5 -38t17.5 -25.5t26 -9.5q17 0 28.5 9.5t18.5 25.5t10 38t3 47zM296 180q0 -89 -34.5 -139.5t-99.5 -50.5q-64 0 -98 50.5t-34 139.5t34 139.5t98 50.5
q65 0 99.5 -50.5t34.5 -139.5z" />
    <glyph glyph-name="uni2081" unicode="&#x2081;" horiz-adv-x="235" 
d="M30 304l110 56h45v-360h-75v266l-80 -37v75z" />
    <glyph glyph-name="uni2082" unicode="&#x2082;" horiz-adv-x="311" 
d="M31 276q11 43 43.5 68.5t77.5 25.5q24 0 46.5 -8.5t39 -24t26.5 -37t10 -47.5q0 -28 -12.5 -51.5t-30.5 -43.5l-79 -88h124v-70h-246v40l136 152q11 11 22 27t11 34q0 19 -12.5 33t-34.5 14q-19 0 -32 -12.5t-19 -32.5z" />
    <glyph glyph-name="uni2083" unicode="&#x2083;" horiz-adv-x="303" 
d="M80 92q8 -14 23.5 -24t34.5 -10q26 0 43 17.5t17 42.5q0 24 -16 43t-45 19q-22 0 -49 -11v40l61 81h-115v70h223v-40l-64 -88q35 -12 57.5 -44t22.5 -70q0 -27 -10.5 -50.5t-28.5 -40.5t-43 -27t-53 -10q-41 0 -71 18.5t-47 45.5z" />
    <glyph glyph-name="uni2084" unicode="&#x2084;" horiz-adv-x="337" 
d="M261 360v-213h61v-70h-61v-77h-75v77h-161v40l191 243h45zM186 147v66l-50 -66h50z" />
    <glyph glyph-name="uni2085" unicode="&#x2085;" horiz-adv-x="295" 
d="M41 162l28 198h190v-70h-124l-7 -50q8 1 10 1h6q27 0 50.5 -10t40 -27t26 -39.5t9.5 -47.5q0 -27 -10 -50t-28 -40.5t-42 -27t-52 -9.5q-37 0 -66.5 16t-46.5 42l58 40q10 -13 24 -20.5t31 -7.5q24 0 40.5 16t16.5 41q0 23 -15.5 40.5t-43.5 17.5q-25 0 -48 -20z" />
    <glyph glyph-name="uni2086" unicode="&#x2086;" horiz-adv-x="309" 
d="M163 241q28 -1 51.5 -11.5t40 -28t25.5 -39.5t9 -47q0 -27 -10.5 -49.5t-28.5 -39.5t-41.5 -26.5t-50.5 -9.5q-29 0 -53.5 10t-42 27t-27.5 39.5t-10 48.5q0 41 26 81l104 164h83zM157 172q-21 0 -38 -10q-7 -8 -13 -19.5t-6 -27.5q0 -24 16.5 -40.5t41.5 -16.5
q24 0 40 16.5t16 40.5t-16 40.5t-41 16.5z" />
    <glyph glyph-name="uni2087" unicode="&#x2087;" horiz-adv-x="267" 
d="M10 360h247v-40l-145 -320h-79l133 290h-156v70z" />
    <glyph glyph-name="uni2088" unicode="&#x2088;" horiz-adv-x="308" 
d="M213 114q0 23 -15.5 39t-42.5 16q-28 0 -44 -16t-16 -39t16 -38.5t44 -15.5q27 0 42.5 15.5t15.5 38.5zM119 264q0 -15 9 -25.5t26 -10.5t26 10.5t9 25.5q0 16 -9 26t-26 10t-26 -10t-9 -26zM44 268q0 21 8.5 40t23 32.5t35 21.5t44.5 8q47 0 78 -29.5t31 -72.5
q0 -19 -7.5 -35.5t-18.5 -29.5q23 -17 36.5 -41t13.5 -52q0 -25 -10 -46.5t-28 -38t-42.5 -26t-52.5 -9.5q-29 0 -53.5 9.5t-42.5 26t-28.5 38t-10.5 46.5q0 28 14 52t36 41q-11 13 -18.5 29.5t-7.5 35.5z" />
    <glyph glyph-name="uni2089" unicode="&#x2089;" horiz-adv-x="309" 
d="M146 119q-29 1 -52 11.5t-39.5 28t-25.5 39.5t-9 47q0 27 10.5 49.5t28.5 39.5t41.5 26.5t50.5 9.5q29 0 53.5 -10t42 -27t27.5 -39.5t10 -48.5q0 -41 -26 -81l-104 -164h-83zM152 188q21 0 38 10q7 8 13 19.5t6 27.5q0 24 -16.5 40.5t-41.5 16.5q-24 0 -40 -16.5
t-16 -40.5t16 -40.5t41 -16.5z" />
    <glyph glyph-name="Euro" unicode="&#x20ac;" horiz-adv-x="580" 
d="M159 350v-18t1 -17h267v-85h-250q22 -64 68 -104.5t118 -40.5q49 0 86 19.5t63 53.5l78 -51q-40 -56 -96 -86.5t-131 -30.5q-58 0 -105.5 18t-84.5 50t-62.5 76t-38.5 96h-82v85h68q-1 8 -1 17v18v17.5t1 17.5h-68v85h82q13 51 38 95t61 76.5t83 50.5t104 18
q73 0 127.5 -30.5t94.5 -86.5l-78 -51q-26 34 -61 53.5t-83 19.5q-70 0 -115 -40.5t-66 -104.5h250v-85h-267q-1 -9 -1 -17.5v-17.5z" />
    <glyph glyph-name="trademark" unicode="&#x2122;" horiz-adv-x="845" 
d="M443 700l143 -216l144 216h45v-383h-72v222l-95 -141h-44l-94 141v-222h-73v383h46zM342 700v-68h-100v-315h-72v315h-100v68h272z" />
    <glyph glyph-name="Omega" unicode="&#x2126;" horiz-adv-x="760" 
d="M380 620q-54 0 -100.5 -20.5t-81 -55.5t-54 -82t-19.5 -100q0 -74 23.5 -130t52.5 -94q33 -45 77 -78v-60h-248v90h92q-26 34 -46 76q-17 36 -31.5 86t-14.5 110q0 74 27.5 137.5t75 110.5t111.5 73.5t136 26.5t136 -26.5t111.5 -73.5t75 -110.5t27.5 -137.5
q0 -60 -14.5 -110t-31.5 -86q-20 -42 -46 -76h92v-90h-248v60q43 33 76 78q14 19 28 42.5t25 51.5t17.5 60.5t6.5 69.5q0 53 -19.5 100t-54 82t-81 55.5t-100.5 20.5z" />
    <glyph glyph-name="arrowleft" unicode="&#x2190;" horiz-adv-x="719" 
d="M261 29l-201 201v50l201 201h113l-188 -186h473v-80h-473l188 -186h-113z" />
    <glyph glyph-name="arrowright" unicode="&#x2192;" horiz-adv-x="719" 
d="M345 29l188 186h-473v80h473l-188 186h113l201 -201v-50l-201 -201h-113z" />
    <glyph glyph-name="uni2196" unicode="&#x2196;" horiz-adv-x="589" 
d="M60 150v284l35 36h285l80 -80h-265l334 -333l-56 -57l-333 334v-264z" />
    <glyph glyph-name="uni2197" unicode="&#x2197;" horiz-adv-x="589" 
d="M449 70v264l-333 -334l-56 57l334 333h-265l80 80h285l35 -36v-284z" />
    <glyph glyph-name="uni2198" unicode="&#x2198;" horiz-adv-x="589" 
d="M529 320v-284l-35 -36h-285l-80 80h265l-334 333l56 57l333 -334v264z" />
    <glyph glyph-name="uni2199" unicode="&#x2199;" horiz-adv-x="589" 
d="M140 400v-264l333 334l56 -57l-334 -333h265l-80 -80h-285l-35 36v284z" />
    <glyph glyph-name="partialdiff" unicode="&#x2202;" horiz-adv-x="576" 
d="M269 710l191 -289q32 -48 51.5 -95t19.5 -91q0 -51 -18.5 -95.5t-51 -77.5t-77 -52.5t-96.5 -19.5t-96.5 19t-77 52.5t-51 78t-18.5 95.5t18 95.5t50.5 77.5t77 52.5t97.5 19.5q5 0 11 -0.5t12 -1.5l-153 232h111zM288 390q-33 0 -60 -12t-46.5 -33t-30.5 -49.5
t-11 -60.5t11 -60.5t30.5 -49.5t46.5 -33t60 -12t60 12t46.5 33t30.5 49.5t11 60.5t-14.5 68t-37.5 64q-17 9 -43 16t-53 7z" />
    <glyph glyph-name="Delta" unicode="&#x2206;" horiz-adv-x="570" 
d="M318 700l247 -640v-60h-560v60l247 640h66zM457 90l-172 446l-172 -446h344z" />
    <glyph glyph-name="product" unicode="&#x220f;" horiz-adv-x="570" 
d="M110 0v610h-100v90h550v-90h-100v-610h-95v610h-160v-610h-95z" />
    <glyph glyph-name="summation" unicode="&#x2211;" horiz-adv-x="560" 
d="M430 610h-267l211 -220v-60l-224 -240h290v110h90v-200h-530v60l280 300l-270 280v60h510v-200h-90v110z" />
    <glyph glyph-name="minus" unicode="&#x2212;" horiz-adv-x="540" 
d="M490 305v-90h-440v90h440z" />
    <glyph glyph-name="uni2215" unicode="&#x2215;" horiz-adv-x="505" 
d="M5 0l409 700h86l-409 -700h-86z" />
    <glyph glyph-name="uni2219" unicode="&#x2219;" horiz-adv-x="340" 
d="M100 235q0 29 20.5 49.5t49.5 20.5t49.5 -20.5t20.5 -49.5t-20.5 -49.5t-49.5 -20.5t-49.5 20.5t-20.5 49.5z" />
    <glyph glyph-name="radical" unicode="&#x221a;" horiz-adv-x="580" 
d="M590 700l-249 -700h-66l-156 380h-109v90h170l125 -304l189 534h96z" />
    <glyph glyph-name="infinity" unicode="&#x221e;" horiz-adv-x="770" 
d="M740 277q0 -43 -13.5 -79t-38 -62.5t-59 -41t-76.5 -14.5q-32 0 -57.5 8.5t-45.5 23t-36 34t-29 41.5q-13 -22 -29 -41.5t-36.5 -34t-45.5 -23t-57 -8.5q-42 0 -76.5 14.5t-59 41t-38 62.5t-13.5 79t13.5 79t38 62.5t59 41t76.5 14.5q32 0 57 -8.5t45.5 -23t36.5 -34
t29 -41.5q13 22 29 41.5t36 34t45.5 23t57.5 8.5q42 0 76.5 -14.5t59 -41t38 -62.5t13.5 -79zM645 277q0 46 -23.5 76.5t-68.5 30.5q-23 0 -40.5 -8.5t-31.5 -23t-26 -34t-23 -41.5q11 -22 23 -41.5t26 -34t31.5 -23t40.5 -8.5q45 0 68.5 30.5t23.5 76.5zM217 384
q-45 0 -68.5 -30.5t-23.5 -76.5t23.5 -76.5t68.5 -30.5q22 0 39.5 8.5t32 23t26.5 34t23 41.5q-11 22 -23 41.5t-26.5 34t-32 23t-39.5 8.5z" />
    <glyph glyph-name="integral" unicode="&#x222b;" horiz-adv-x="526" 
d="M157 -44q9 30 15 73.5t10.5 94.5t8.5 105.5t9 107t11 100t15 82.5q9 36 23.5 69t37.5 58q28 31 66.5 47.5t87.5 16.5q18 0 37 -3t38 -11l-26 -83q-11 3 -22.5 5t-26.5 2q-52 0 -83 -35q-25 -30 -39 -81q-9 -30 -15 -73.5t-10.5 -94.5t-8.5 -105.5t-9 -107t-11 -100
t-15 -82.5q-9 -36 -23.5 -69t-37.5 -58q-28 -31 -66.5 -47.5t-87.5 -16.5q-18 0 -37 3t-38 11l26 83q11 -3 22.5 -5t26.5 -2q52 0 83 35q25 30 39 81z" />
    <glyph glyph-name="approxequal" unicode="&#x2248;" horiz-adv-x="580" 
d="M545 389q-9 -23 -22.5 -45.5t-32 -41t-43 -30t-54.5 -11.5q-35 0 -63 13.5t-52 30t-45 30.5t-42 14q-14 0 -25.5 -7t-21.5 -18t-18 -25t-14 -27l-77 39q9 22 22.5 45t32 41.5t43 30t54.5 11.5q35 0 63 -14t52 -30.5t45 -30t42 -13.5q13 0 25 7t22 18t18 24.5t14 27.5z
M545 209q-9 -23 -22.5 -45.5t-32 -41t-43 -30t-54.5 -11.5q-35 0 -63 13.5t-52 30t-45 30.5t-42 14q-14 0 -25.5 -7t-21.5 -18t-18 -25t-14 -27l-77 39q9 22 22.5 45t32 41.5t43 30t54.5 11.5q35 0 63 -14t52 -30.5t45 -30t42 -13.5q13 0 25 7t22 18t18 24.5t14 27.5z" />
    <glyph glyph-name="notequal" unicode="&#x2260;" horiz-adv-x="540" 
d="M295 395l61 105h104l-61 -105h91v-90h-142l-52 -90h194v-90h-246l-60 -105h-104l60 105h-90v90h142l52 90h-194v90h245z" />
    <glyph glyph-name="lessequal" unicode="&#x2264;" horiz-adv-x="545" 
d="M490 110v-90h-440v90h440zM490 237v-95l-440 148v60l440 148v-95l-246 -83z" />
    <glyph glyph-name="greaterequal" unicode="&#x2265;" horiz-adv-x="545" 
d="M495 110v-90h-440v90h440zM301 320l-246 83v95l440 -148v-60l-440 -148v95z" />
    <glyph glyph-name="lozenge" unicode="&#x25ca;" horiz-adv-x="550" 
d="M35 320v60l207 320h66l207 -320v-60l-207 -320h-66zM123 350l152 -237l152 237l-152 237z" />
    <glyph glyph-name="uniFB00" unicode="&#xfb00;" horiz-adv-x="755" 
d="M705 626q-5 2 -15 3t-20 1q-20 0 -40 -8.5t-32 -24.5q-10 -13 -14 -32.5t-4 -51.5v-43h145v-85h-145v-385h-95v385h-255v-385h-95v385h-110v85h110v40q0 48 7 78.5t23 53.5q26 37 66 57.5t88 20.5q15 0 30.5 -2t25.5 -5l-20 -87q-5 2 -15 3t-20 1q-20 0 -40 -8.5
t-32 -24.5q-10 -13 -14 -32.5t-4 -51.5v-43h255v40q0 48 7 78.5t23 53.5q26 37 66 57.5t88 20.5q15 0 30.5 -2t25.5 -5z" />
    <glyph glyph-name="fi" unicode="&#xfb01;" horiz-adv-x="665" 
d="M470 647q0 26 18 44.5t44 18.5t44.5 -18.5t18.5 -44.5t-18.5 -44t-44.5 -18t-44 18t-18 44zM135 510q0 48 7 78.5t23 53.5q26 37 66 57.5t88 20.5q15 0 30.5 -2t25.5 -5l-20 -87q-5 2 -15 3t-20 1q-20 0 -40 -8.5t-32 -24.5q-10 -13 -14 -32.5t-4 -51.5v-43h350v-470h-95
v385h-255v-385h-95v385h-110v85h110v40z" />
    <glyph glyph-name="fl" unicode="&#xfb02;" horiz-adv-x="665" 
d="M135 510q0 48 7 78.5t23 53.5q26 37 66 57.5t88 20.5q15 0 30.5 -2t25.5 -5l-20 -87q-5 2 -15 3t-20 1q-20 0 -40 -8.5t-32 -24.5q-10 -13 -14 -32.5t-4 -51.5v-43h255v240h95v-710h-95v385h-255v-385h-95v385h-110v85h110v40z" />
    <glyph glyph-name="uniFB03" unicode="&#xfb03;" horiz-adv-x="1015" 
d="M705 626q-5 2 -15 3t-20 1q-20 0 -40 -8.5t-32 -24.5q-10 -13 -14 -32.5t-4 -51.5v-43h350v-470h-95v385h-255v-385h-95v385h-255v-385h-95v385h-110v85h110v40q0 48 7 78.5t23 53.5q26 37 66 57.5t88 20.5q15 0 30.5 -2t25.5 -5l-20 -87q-5 2 -15 3t-20 1
q-20 0 -40 -8.5t-32 -24.5q-10 -13 -14 -32.5t-4 -51.5v-43h255v40q0 48 7 78.5t23 53.5q26 37 66 57.5t88 20.5q15 0 30.5 -2t25.5 -5zM820 647q0 26 18 44.5t44 18.5t44.5 -18.5t18.5 -44.5t-18.5 -44t-44.5 -18t-44 18t-18 44z" />
    <glyph glyph-name="uniFB04" unicode="&#xfb04;" horiz-adv-x="1015" 
d="M705 626q-5 2 -15 3t-20 1q-20 0 -40 -8.5t-32 -24.5q-10 -13 -14 -32.5t-4 -51.5v-43h255v240h95v-710h-95v385h-255v-385h-95v385h-255v-385h-95v385h-110v85h110v40q0 48 7 78.5t23 53.5q26 37 66 57.5t88 20.5q15 0 30.5 -2t25.5 -5l-20 -87q-5 2 -15 3t-20 1
q-20 0 -40 -8.5t-32 -24.5q-10 -13 -14 -32.5t-4 -51.5v-43h255v40q0 48 7 78.5t23 53.5q26 37 66 57.5t88 20.5q15 0 30.5 -2t25.5 -5z" />
    <glyph glyph-name="zero.numr" horiz-adv-x="326" 
d="M221 520q0 25 -3 47t-10 38t-18.5 25.5t-28.5 9.5q-15 0 -26 -9.5t-17.5 -25.5t-9.5 -38t-3 -47t3 -47t9.5 -38t17.5 -25.5t26 -9.5q17 0 28.5 9.5t18.5 25.5t10 38t3 47zM296 520q0 -89 -34.5 -139.5t-99.5 -50.5q-64 0 -98 50.5t-34 139.5t34 139.5t98 50.5
q65 0 99.5 -50.5t34.5 -139.5z" />
    <glyph glyph-name="one.numr" horiz-adv-x="235" 
d="M30 644l110 56h45v-360h-75v266l-80 -37v75z" />
    <glyph glyph-name="two.numr" horiz-adv-x="311" 
d="M31 616q11 43 43.5 68.5t77.5 25.5q24 0 46.5 -8.5t39 -24t26.5 -37t10 -47.5q0 -28 -12.5 -51.5t-30.5 -43.5l-79 -88h124v-70h-246v40l136 152q11 11 22 27t11 34q0 19 -12.5 33t-34.5 14q-19 0 -32 -12.5t-19 -32.5z" />
    <glyph glyph-name="three.numr" horiz-adv-x="303" 
d="M80 432q8 -14 23.5 -24t34.5 -10q26 0 43 17.5t17 42.5q0 24 -16 43t-45 19q-22 0 -49 -11v40l61 81h-115v70h223v-40l-64 -88q35 -12 57.5 -44t22.5 -70q0 -27 -10.5 -50.5t-28.5 -40.5t-43 -27t-53 -10q-41 0 -71 18.5t-47 45.5z" />
    <glyph glyph-name="four.numr" horiz-adv-x="337" 
d="M261 700v-213h61v-70h-61v-77h-75v77h-161v40l191 243h45zM186 487v66l-50 -66h50z" />
    <glyph glyph-name="five.numr" horiz-adv-x="295" 
d="M41 502l28 198h190v-70h-124l-7 -50q8 1 10 1h6q27 0 50.5 -10t40 -27t26 -39.5t9.5 -47.5q0 -27 -10 -50t-28 -40.5t-42 -27t-52 -9.5q-37 0 -66.5 16t-46.5 42l58 40q10 -13 24 -20.5t31 -7.5q24 0 40.5 16t16.5 41q0 23 -15.5 40.5t-43.5 17.5q-25 0 -48 -20z" />
    <glyph glyph-name="six.numr" horiz-adv-x="309" 
d="M163 581q28 -1 51.5 -11.5t40 -28t25.5 -39.5t9 -47q0 -27 -10.5 -49.5t-28.5 -39.5t-41.5 -26.5t-50.5 -9.5q-29 0 -53.5 10t-42 27t-27.5 39.5t-10 48.5q0 41 26 81l104 164h83zM157 512q-21 0 -38 -10q-7 -8 -13 -19.5t-6 -27.5q0 -24 16.5 -40.5t41.5 -16.5
q24 0 40 16.5t16 40.5t-16 40.5t-41 16.5z" />
    <glyph glyph-name="seven.numr" horiz-adv-x="267" 
d="M10 700h247v-40l-145 -320h-79l133 290h-156v70z" />
    <glyph glyph-name="eight.numr" horiz-adv-x="308" 
d="M213 454q0 23 -15.5 39t-42.5 16q-28 0 -44 -16t-16 -39t16 -38.5t44 -15.5q27 0 42.5 15.5t15.5 38.5zM119 604q0 -15 9 -25.5t26 -10.5t26 10.5t9 25.5q0 16 -9 26t-26 10t-26 -10t-9 -26zM44 608q0 21 8.5 40t23 32.5t35 21.5t44.5 8q47 0 78 -29.5t31 -72.5
q0 -19 -7.5 -35.5t-18.5 -29.5q23 -17 36.5 -41t13.5 -52q0 -25 -10 -46.5t-28 -38t-42.5 -26t-52.5 -9.5q-29 0 -53.5 9.5t-42.5 26t-28.5 38t-10.5 46.5q0 28 14 52t36 41q-11 13 -18.5 29.5t-7.5 35.5z" />
    <glyph glyph-name="nine.numr" horiz-adv-x="309" 
d="M146 459q-29 1 -52 11.5t-39.5 28t-25.5 39.5t-9 47q0 27 10.5 49.5t28.5 39.5t41.5 26.5t50.5 9.5q29 0 53.5 -10t42 -27t27.5 -39.5t10 -48.5q0 -41 -26 -81l-104 -164h-83zM152 526q21 0 38 10q7 8 13 19.5t6 27.5q0 24 -16.5 40.5t-41.5 16.5q-24 0 -40 -16.5
t-16 -40.5t16 -40.5t41 -16.5z" />
    <glyph glyph-name="zero.dnom" horiz-adv-x="326" 
d="M221 180q0 25 -3 47t-10 38t-18.5 25.5t-28.5 9.5q-15 0 -26 -9.5t-17.5 -25.5t-9.5 -38t-3 -47t3 -47t9.5 -38t17.5 -25.5t26 -9.5q17 0 28.5 9.5t18.5 25.5t10 38t3 47zM296 180q0 -89 -34.5 -139.5t-99.5 -50.5q-64 0 -98 50.5t-34 139.5t34 139.5t98 50.5
q65 0 99.5 -50.5t34.5 -139.5z" />
    <glyph glyph-name="one.dnom" horiz-adv-x="235" 
d="M30 304l110 56h45v-360h-75v266l-80 -37v75z" />
    <glyph glyph-name="two.dnom" horiz-adv-x="311" 
d="M31 276q11 43 43.5 68.5t77.5 25.5q24 0 46.5 -8.5t39 -24t26.5 -37t10 -47.5q0 -28 -12.5 -51.5t-30.5 -43.5l-79 -88h124v-70h-246v40l136 152q11 11 22 27t11 34q0 19 -12.5 33t-34.5 14q-19 0 -32 -12.5t-19 -32.5z" />
    <glyph glyph-name="three.dnom" horiz-adv-x="303" 
d="M80 92q8 -14 23.5 -24t34.5 -10q26 0 43 17.5t17 42.5q0 24 -16 43t-45 19q-22 0 -49 -11v40l61 81h-115v70h223v-40l-64 -88q35 -12 57.5 -44t22.5 -70q0 -27 -10.5 -50.5t-28.5 -40.5t-43 -27t-53 -10q-41 0 -71 18.5t-47 45.5z" />
    <glyph glyph-name="four.dnom" horiz-adv-x="337" 
d="M261 360v-213h61v-70h-61v-77h-75v77h-161v40l191 243h45zM186 147v66l-50 -66h50z" />
    <glyph glyph-name="five.dnom" horiz-adv-x="295" 
d="M41 162l28 198h190v-70h-124l-7 -50q8 1 10 1h6q27 0 50.5 -10t40 -27t26 -39.5t9.5 -47.5q0 -27 -10 -50t-28 -40.5t-42 -27t-52 -9.5q-37 0 -66.5 16t-46.5 42l58 40q10 -13 24 -20.5t31 -7.5q24 0 40.5 16t16.5 41q0 23 -15.5 40.5t-43.5 17.5q-25 0 -48 -20z" />
    <glyph glyph-name="six.dnom" horiz-adv-x="309" 
d="M163 241q28 -1 51.5 -11.5t40 -28t25.5 -39.5t9 -47q0 -27 -10.5 -49.5t-28.5 -39.5t-41.5 -26.5t-50.5 -9.5q-29 0 -53.5 10t-42 27t-27.5 39.5t-10 48.5q0 41 26 81l104 164h83zM157 172q-21 0 -38 -10q-7 -8 -13 -19.5t-6 -27.5q0 -24 16.5 -40.5t41.5 -16.5
q24 0 40 16.5t16 40.5t-16 40.5t-41 16.5z" />
    <glyph glyph-name="seven.dnom" horiz-adv-x="267" 
d="M10 360h247v-40l-145 -320h-79l133 290h-156v70z" />
    <glyph glyph-name="eight.dnom" horiz-adv-x="308" 
d="M213 114q0 23 -15.5 39t-42.5 16q-28 0 -44 -16t-16 -39t16 -38.5t44 -15.5q27 0 42.5 15.5t15.5 38.5zM119 264q0 -15 9 -25.5t26 -10.5t26 10.5t9 25.5q0 16 -9 26t-26 10t-26 -10t-9 -26zM44 268q0 21 8.5 40t23 32.5t35 21.5t44.5 8q47 0 78 -29.5t31 -72.5
q0 -19 -7.5 -35.5t-18.5 -29.5q23 -17 36.5 -41t13.5 -52q0 -25 -10 -46.5t-28 -38t-42.5 -26t-52.5 -9.5q-29 0 -53.5 9.5t-42.5 26t-28.5 38t-10.5 46.5q0 28 14 52t36 41q-11 13 -18.5 29.5t-7.5 35.5z" />
    <glyph glyph-name="nine.dnom" horiz-adv-x="309" 
d="M146 119q-29 1 -52 11.5t-39.5 28t-25.5 39.5t-9 47q0 27 10.5 49.5t28.5 39.5t41.5 26.5t50.5 9.5q29 0 53.5 -10t42 -27t27.5 -39.5t10 -48.5q0 -41 -26 -81l-104 -164h-83zM152 188q21 0 38 10q7 8 13 19.5t6 27.5q0 24 -16.5 40.5t-41.5 16.5q-24 0 -40 -16.5
t-16 -40.5t16 -40.5t41 -16.5z" />
    <glyph glyph-name="quotedbl.tf" 
d="M145 700h95l-15 -250h-65zM350 700h95l-15 -250h-65z" />
    <glyph glyph-name="numbersign.tf" 
d="M415 195l-53 -195h-93l53 195h-137l-53 -195h-93l53 195h-102v90h126l34 130h-103v90h127l53 195h93l-53 -195h137l53 195h93l-53 -195h103v-90h-127l-34 -130h103v-90h-127zM209 285h137l34 130h-137z" />
    <glyph glyph-name="dollar.tf" 
d="M298 85q24 0 46.5 7.5t39 21.5t26.5 33t10 43q0 40 -24.5 64.5t-61 42.5t-78.5 34t-77 39q-38 25 -63.5 62t-25.5 92q0 33 12 63t33.5 54t52 40.5t67.5 23.5v110h95v-109q48 -8 82.5 -27.5t57.5 -38.5l-59 -73q-57 48 -125 48q-22 0 -42.5 -6t-37 -18t-26.5 -29.5
t-10 -40.5q0 -33 24.5 -55t61 -39.5t78 -34.5t75.5 -39q18 -12 34 -27t29 -34.5t20.5 -44t7.5 -54.5q0 -40 -13 -73.5t-35.5 -59t-53.5 -42.5t-68 -24v-109h-95v109q-58 8 -108.5 36.5t-88.5 76.5l69 68q31 -38 74 -64t97 -26z" />
    <glyph glyph-name="quotesingle.tf" 
d="M248 700h95l-15 -250h-65z" />
    <glyph glyph-name="plus.tf" 
d="M250 305v175h90v-175h175v-90h-175v-175h-90v175h-175v90h175z" />
    <glyph glyph-name="zero.tf" 
d="M435 350q0 52 -6.5 100t-22.5 85t-43 58.5t-68 21.5t-68 -21.5t-43 -58.5t-22.5 -85t-6.5 -100q0 -53 6.5 -100.5t22.5 -84.5t43 -58.5t68 -21.5t68 21.5t43 58.5t22.5 84.5t6.5 100.5zM55 350q0 75 13 140.5t41.5 114t74 77t111.5 28.5t111.5 -28.5t74 -77t41.5 -114
t13 -140.5t-13 -140.5t-41.5 -114t-74 -77t-111.5 -28.5t-111.5 28.5t-74 77t-41.5 114t-13 140.5z" />
    <glyph glyph-name="one.tf" 
d="M75 95h190v480l-155 -80v99l185 106h70v-605h160v-95h-450v95z" />
    <glyph glyph-name="two.tf" 
d="M76 551q14 49 39 80.5t54.5 48.5t59.5 23.5t53 6.5q46 0 85 -17t67.5 -45.5t44.5 -67t16 -81.5q0 -61 -26.5 -111t-64.5 -94l-176 -199h267v-95h-420v65l239 273q41 47 61 82t20 79q0 22 -8 43t-22.5 37.5t-35 26t-45.5 9.5q-48 0 -76.5 -26t-42.5 -67z" />
    <glyph glyph-name="three.tf" 
d="M128 158q17 -33 52.5 -53t79.5 -20q30 0 56 11t46 30t31.5 45.5t11.5 58.5q0 31 -11 58t-31.5 46t-48 30t-60.5 11q-29 0 -51 -4.5t-30 -6.5v65l149 176h-242v95h390v-65l-154 -177q40 -6 74.5 -26t60 -50t40 -69t14.5 -83q0 -52 -19 -96t-51.5 -76t-76 -50t-92.5 -18
q-72 0 -131 30.5t-90 89.5z" />
    <glyph glyph-name="four.tf" 
d="M40 235l360 465h70v-435h110v-95h-110v-170h-100v170h-330v65zM370 265v236l-188 -236h188z" />
    <glyph glyph-name="five.tf" 
d="M240 605l-20 -147q16 5 32.5 8.5t33.5 3.5q51 0 95 -19t76 -52t50 -76.5t18 -92.5t-18 -92.5t-50 -76.5t-76 -52t-96 -19q-65 0 -119 27t-86 73l76 59q20 -26 54 -45t76 -19q31 0 57 11.5t44 31.5t28 46t10 56t-10 56t-28.5 46t-45 31.5t-58.5 11.5t-59 -11t-47 -29
l-69 10l50 355h328v-95h-246z" />
    <glyph glyph-name="six.tf" 
d="M189 338q-18 -28 -26.5 -53t-8.5 -55q0 -31 11 -57.5t30 -46t45.5 -30.5t56.5 -11q31 0 57.5 11.5t45.5 31t29.5 45.5t10.5 55q0 30 -10.5 56.5t-29.5 46.5t-44.5 32t-56.5 12q-34 0 -62.5 -9.5t-47.5 -27.5zM270 465q10 2 19.5 2h18.5q48 0 90 -18t73.5 -50t50 -75
t18.5 -94q0 -50 -18.5 -94t-50.5 -76.5t-77 -51t-97 -18.5q-53 0 -97.5 18.5t-76.5 51t-50 75.5t-18 92q0 25 4.5 50.5t18.5 56.5q11 24 28 53t38 61l166 252h113z" />
    <glyph glyph-name="seven.tf" 
d="M95 0l300 605h-320v95h440v-65l-313 -635h-107z" />
    <glyph glyph-name="eight.tf" 
d="M295 -10q-51 0 -94.5 17.5t-76 47.5t-51 70.5t-18.5 86.5q0 60 31.5 108.5t79.5 74.5q-29 20 -47.5 56t-18.5 74t15 72t41 59t61.5 39.5t77.5 14.5t77.5 -14.5t61.5 -39.5t41 -59t15 -72t-18.5 -74t-47.5 -56q48 -26 79.5 -74.5t31.5 -108.5q0 -46 -18.5 -86.5t-51 -70.5
t-76 -47.5t-94.5 -17.5zM295 340q-30 0 -55.5 -10t-44.5 -27.5t-29.5 -40.5t-10.5 -50t10.5 -50t29.5 -40t44.5 -27t55.5 -10t55.5 10t44.5 27t29.5 40t10.5 50t-10.5 50t-29.5 40.5t-44.5 27.5t-55.5 10zM295 615q-42 0 -68.5 -26t-26.5 -64t26.5 -64t68.5 -26t68.5 26
t26.5 64t-26.5 64t-68.5 26z" />
    <glyph glyph-name="nine.tf" 
d="M401 362q18 28 26.5 53t8.5 55q0 31 -11 57.5t-30 46t-45.5 30.5t-56.5 11q-32 0 -58 -11.5t-45 -31t-29.5 -45.5t-10.5 -55q0 -30 10.5 -56.5t29 -46.5t44.5 -32t57 -12q34 0 62.5 9.5t47.5 27.5zM320 235q-10 -2 -19.5 -2h-18.5q-48 0 -90.5 18t-74 50t-49.5 75t-18 94
q0 50 18.5 94t50.5 76.5t76.5 51t97.5 18.5t97.5 -18.5t76.5 -51t50 -75.5t18 -92q0 -25 -4.5 -50.5t-18.5 -56.5q-11 -24 -28 -53t-38 -61l-166 -252h-113z" />
    <glyph glyph-name="less.tf" 
d="M515 140v-98l-440 188v60l440 188v-98l-281 -120z" />
    <glyph glyph-name="equal.tf" 
d="M515 395v-90h-440v90h440zM515 215v-90h-440v90h440z" />
    <glyph glyph-name="greater.tf" 
d="M356 260l-281 120v98l440 -188v-60l-440 -188v98z" />
    <glyph glyph-name="asciicircum.tf" 
d="M85 350l177 350h66l177 -350h-100l-110 217l-110 -217h-100z" />
    <glyph glyph-name="asciitilde.tf" 
d="M550 299q-9 -23 -22.5 -45.5t-32 -41t-43 -30t-54.5 -11.5q-35 0 -63 13.5t-52 30t-45 30.5t-42 14q-14 0 -25.5 -7t-21.5 -18t-18 -25t-14 -27l-77 39q9 22 22.5 45t32 41.5t43 30t54.5 11.5q35 0 63 -14t52 -30.5t45 -30t42 -13.5q13 0 25 7t22 18t18 24.5t14 27.5z
" />
    <glyph glyph-name="cent.tf" 
d="M262 -4q-44 8 -80 29.5t-62 53t-40.5 71.5t-14.5 85q0 46 14.5 86t40.5 71.5t62 53t80 29.5v110h95v-110q47 -9 86.5 -34.5t66.5 -62.5l-70 -59q-20 27 -52.5 49t-77.5 22q-32 0 -59.5 -11.5t-47.5 -32.5t-31.5 -49.5t-11.5 -61.5q0 -35 11.5 -63.5t32.5 -48.5
t49.5 -31.5t62.5 -11.5q47 0 80 21.5t56 51.5l73 -53q-25 -42 -69.5 -70t-98.5 -36v-109h-95v111z" />
    <glyph glyph-name="sterling.tf" 
d="M415 400v-85h-120q6 -29 6 -60q0 -47 -16 -91.5t-42 -73.5h292v-90h-465v60q33 13 58.5 35.5t43 49.5t26 55.5t8.5 54.5q0 16 -2.5 31t-6.5 29h-107v85h76q-12 29 -21 59t-9 65q0 41 16 75.5t43 59t61.5 38t72.5 13.5q31 0 57.5 -8t48 -21.5t39 -30t29.5 -34.5l-75 -54
q-14 23 -39 40.5t-60 17.5q-18 0 -35.5 -6.5t-31.5 -19.5t-22.5 -31t-8.5 -41q0 -30 11.5 -60t24.5 -62h148z" />
    <glyph glyph-name="currency.tf" 
d="M89 351q0 31 8.5 59t23.5 52l-76 76l63 63l76 -76q24 15 52 23.5t59 8.5t59 -8.5t52 -23.5l76 76l63 -63l-76 -76q32 -49 32 -111t-32 -111l76 -76l-63 -63l-76 76q-49 -32 -111 -32t-111 32l-76 -76l-63 63l76 76q-15 24 -23.5 52t-8.5 59zM184 351q0 -23 9 -43t24 -35
t35 -24t43 -9t43 9t35 24t24 35t9 43t-9 43t-24 35t-35 24t-43 9t-43 -9t-35 -24t-24 -35t-9 -43z" />
    <glyph glyph-name="yen.tf" 
d="M535 315v-85h-190v-230h-100v230h-190v85h190l-44 70h-146v85h93l-143 230h114l176 -286l176 286h114l-144 -230h94v-85h-147l-43 -70h190z" />
    <glyph glyph-name="section.tf" 
d="M97 524q0 38 16 72t44.5 59.5t67 40t84.5 14.5q33 0 61.5 -6.5t52 -17t42 -22.5t32.5 -24l-59 -73q-57 48 -125 48q-22 0 -42.5 -5.5t-37 -16.5t-26.5 -27.5t-10 -38.5q0 -29 23 -47t58 -33t77 -29.5t80 -35.5q45 -24 75 -63t30 -97q0 -48 -25.5 -91.5t-63.5 -71.5
q19 -20 30.5 -45t11.5 -58q0 -38 -16 -72t-44.5 -59.5t-67 -40t-84.5 -14.5q-33 0 -61.5 6.5t-52 17t-42 22.5t-32.5 24l59 73q57 -48 125 -48q22 0 42.5 5.5t37 16.5t26.5 27.5t10 38.5q0 28 -23 46.5t-58 33.5t-77 29.5t-80 35.5q-45 24 -75 63t-30 97q0 48 25.5 91
t63.5 72q-20 19 -31 44t-11 59zM150 262q0 -32 20 -53.5t51.5 -37t70 -29t74.5 -29.5q13 6 26.5 17t24 24.5t17 30t6.5 33.5q0 32 -20 53t-51.5 37t-70 29t-75.5 30q-13 -7 -26 -17.5t-23.5 -24.5t-17 -30t-6.5 -33z" />
    <glyph glyph-name="logicalnot.tf" 
d="M515 125h-90v180h-350v90h440v-270z" />
    <glyph glyph-name="plusminus.tf" 
d="M250 365v135h90v-135h175v-90h-175v-135h-90v135h-175v90h175zM515 110v-90h-440v90h440z" />
    <glyph glyph-name="mu.tf" 
d="M285 -10q-20 0 -37.5 4.5t-32.5 11t-26.5 14.5t-18.5 15v-275h-95v710h95v-255q0 -36 7 -57.5t20 -36.5q16 -19 39 -30t49 -11q47 0 79.5 21t55.5 46v323h95v-470h-92v43q-8 -8 -21.5 -17t-31 -17t-39.5 -13.5t-46 -5.5z" />
    <glyph glyph-name="multiply.tf" 
d="M295 324l145 145l64 -64l-145 -145l145 -145l-64 -64l-145 145l-145 -145l-64 64l145 145l-145 145l64 64z" />
    <glyph glyph-name="divide.tf" 
d="M515 305v-90h-440v90h440zM225 100q0 29 20.5 49.5t49.5 20.5t49.5 -20.5t20.5 -49.5t-20.5 -49.5t-49.5 -20.5t-49.5 20.5t-20.5 49.5zM225 420q0 29 20.5 49.5t49.5 20.5t49.5 -20.5t20.5 -49.5t-20.5 -49.5t-49.5 -20.5t-49.5 20.5t-20.5 49.5z" />
    <glyph glyph-name="florin.tf" 
d="M177 -44q8 28 14 69t10.5 88.5t8 99t8.5 102.5h-152v85h160q4 34 8.5 64t11.5 55q9 36 23.5 69t37.5 58q28 31 66.5 47.5t87.5 16.5q18 0 37 -3t38 -11l-26 -83q-11 3 -22.5 5t-26.5 2q-52 0 -83 -35q-25 -30 -39 -81q-6 -20 -10.5 -46.5t-8.5 -57.5h152v-85h-161
q-4 -49 -8 -101t-8.5 -101.5t-10 -93.5t-14.5 -78q-9 -36 -23.5 -69t-37.5 -58q-28 -31 -66.5 -47.5t-87.5 -16.5q-18 0 -37 3t-38 11l26 83q11 -3 22.5 -5t26.5 -2q52 0 83 35q25 30 39 81z" />
    <glyph glyph-name="pi.tf" 
d="M448 -10q-24 12 -38.5 29t-22 38t-10 44.5t-2.5 48.5v230h-100v-380h-95v374q-16 -3 -28 -9q-19 -9 -31.5 -22.5t-23.5 -28.5l-77 46q14 26 39 51t63 41q20 8 46 13t61 5h341v-90h-100v-227q0 -30 4 -50.5t28 -34.5z" />
    <glyph glyph-name="Euro.tf" 
d="M159 350v-18t1 -17h267v-85h-250q22 -64 68 -104.5t118 -40.5q49 0 86 19.5t63 53.5l78 -51q-40 -56 -96 -86.5t-131 -30.5q-58 0 -105.5 18t-84.5 50t-62.5 76t-38.5 96h-82v85h68q-1 8 -1 17v18v17.5t1 17.5h-68v85h82q13 51 38 95t61 76.5t83 50.5t104 18
q73 0 127.5 -30.5t94.5 -86.5l-78 -51q-26 34 -61 53.5t-83 19.5q-70 0 -115 -40.5t-66 -104.5h250v-85h-267q-1 -9 -1 -17.5v-17.5z" />
    <glyph glyph-name="partialdiff.tf" 
d="M276 710l191 -289q32 -48 51.5 -95t19.5 -91q0 -51 -18.5 -95.5t-51 -77.5t-77 -52.5t-96.5 -19.5t-96.5 19t-77 52.5t-51 78t-18.5 95.5t18 95.5t50.5 77.5t77 52.5t97.5 19.5q5 0 11 -0.5t12 -1.5l-153 232h111zM295 390q-33 0 -60 -12t-46.5 -33t-30.5 -49.5
t-11 -60.5t11 -60.5t30.5 -49.5t46.5 -33t60 -12t60 12t46.5 33t30.5 49.5t11 60.5t-14.5 68t-37.5 64q-17 9 -43 16t-53 7z" />
    <glyph glyph-name="Delta.tf" 
d="M328 700l247 -640v-60h-560v60l247 640h66zM467 90l-172 446l-172 -446h344z" />
    <glyph glyph-name="product.tf" 
d="M120 0v610h-100v90h550v-90h-100v-610h-95v610h-160v-610h-95z" />
    <glyph glyph-name="summation.tf" 
d="M460 610h-267l211 -220v-60l-224 -240h290v110h90v-200h-530v60l280 300l-270 280v60h510v-200h-90v110z" />
    <glyph glyph-name="minus.tf" 
d="M515 305v-90h-440v90h440z" />
    <glyph glyph-name="radical.tf" 
d="M560 700l-249 -700h-66l-156 380h-109v90h170l125 -304l189 534h96z" />
    <glyph glyph-name="integral.tf" 
d="M177 -44q9 30 15 73.5t10.5 94.5t8.5 105.5t9 107t11 100t15 82.5q9 36 23.5 69t37.5 58q28 31 66.5 47.5t87.5 16.5q18 0 37 -3t38 -11l-26 -83q-11 3 -22.5 5t-26.5 2q-52 0 -83 -35q-25 -30 -39 -81q-9 -30 -15 -73.5t-10.5 -94.5t-8.5 -105.5t-9 -107t-11 -100
t-15 -82.5q-9 -36 -23.5 -69t-37.5 -58q-28 -31 -66.5 -47.5t-87.5 -16.5q-18 0 -37 3t-38 11l26 83q11 -3 22.5 -5t26.5 -2q52 0 83 35q25 30 39 81z" />
    <glyph glyph-name="approxequal.tf" 
d="M550 389q-9 -23 -22.5 -45.5t-32 -41t-43 -30t-54.5 -11.5q-35 0 -63 13.5t-52 30t-45 30.5t-42 14q-14 0 -25.5 -7t-21.5 -18t-18 -25t-14 -27l-77 39q9 22 22.5 45t32 41.5t43 30t54.5 11.5q35 0 63 -14t52 -30.5t45 -30t42 -13.5q13 0 25 7t22 18t18 24.5t14 27.5z
M550 209q-9 -23 -22.5 -45.5t-32 -41t-43 -30t-54.5 -11.5q-35 0 -63 13.5t-52 30t-45 30.5t-42 14q-14 0 -25.5 -7t-21.5 -18t-18 -25t-14 -27l-77 39q9 22 22.5 45t32 41.5t43 30t54.5 11.5q35 0 63 -14t52 -30.5t45 -30t42 -13.5q13 0 25 7t22 18t18 24.5t14 27.5z" />
    <glyph glyph-name="notequal.tf" 
d="M320 395l61 105h104l-61 -105h91v-90h-142l-52 -90h194v-90h-246l-60 -105h-104l60 105h-90v90h142l52 90h-194v90h245z" />
    <glyph glyph-name="lessequal.tf" 
d="M515 110v-90h-440v90h440zM515 237v-95l-440 148v60l440 148v-95l-246 -83z" />
    <glyph glyph-name="greaterequal.tf" 
d="M515 110v-90h-440v90h440zM321 320l-246 83v95l440 -148v-60l-440 -148v95z" />
    <glyph glyph-name="lozenge.tf" 
d="M55 320v60l207 320h66l207 -320v-60l-207 -320h-66zM143 350l152 -237l152 237l-152 237z" />
    <glyph glyph-name="parenleft.case" horiz-adv-x="445" 
d="M245 350q0 -114 34.5 -217.5t95.5 -189.5l-77 -53q-70 98 -109 214t-39 246t39 246t109 214l77 -53q-61 -86 -95.5 -189.5t-34.5 -217.5z" />
    <glyph glyph-name="parenright.case" horiz-adv-x="445" 
d="M200 350q0 114 -34.5 217.5t-95.5 189.5l77 53q70 -98 109 -214t39 -246t-39 -246t-109 -214l-77 53q61 86 95.5 189.5t34.5 217.5z" />
    <glyph glyph-name="hyphen.case" horiz-adv-x="460" 
d="M380 420v-80h-300v80h300z" />
    <glyph glyph-name="at.case" horiz-adv-x="1000" 
d="M591 435q-17 18 -41 31.5t-62 13.5q-22 0 -43.5 -8t-39 -24t-28 -40.5t-10.5 -57.5t10.5 -57.5t28 -40.5t39.5 -24t45 -8q36 0 60 16.5t41 33.5v165zM760 -6q-52 -40 -116.5 -62t-136.5 -22q-91 0 -170.5 34.5t-139 94.5t-93.5 140t-34 171t34 171t93.5 140t139 94.5
t170.5 34.5q88 0 165 -29t134.5 -81.5t90.5 -126.5t33 -163q0 -51 -11.5 -97t-35.5 -81.5t-60 -56t-85 -20.5q-42 0 -73 15.5t-51 43.5q-7 -9 -19 -19.5t-29 -19t-39.5 -14.5t-50.5 -6q-37 0 -72.5 14t-63.5 41.5t-45.5 67.5t-17.5 92t17.5 92.5t46 67.5t64.5 41t74 14
q47 0 75 -15.5t42 -28.5v34h85v-243q0 -17 1.5 -33.5t8.5 -28.5q8 -13 21 -21.5t33 -8.5q47 0 72 47t25 125q0 68 -25.5 125.5t-70.5 99t-106 65t-133 23.5t-135 -28t-110.5 -76t-74.5 -113t-27 -138q0 -74 27 -138.5t74.5 -112.5t110.5 -76t135 -28q58 0 110 18.5t96 50.5z
" />
    <glyph glyph-name="bracketleft.case" horiz-adv-x="445" 
d="M150 800h245v-90h-150v-720h150v-90h-245v900z" />
    <glyph glyph-name="bracketright.case" horiz-adv-x="445" 
d="M295 -100h-245v90h150v720h-150v90h245v-900z" />
    <glyph glyph-name="braceleft.case" horiz-adv-x="445" 
d="M192 350q10 -5 19.5 -12.5t17 -19.5t12 -29t4.5 -42q0 -48 -5 -90t-5 -84q0 -20 3.5 -36t13.5 -27q18 -20 59 -20h34v-90h-30q-46 0 -74.5 7.5t-48.5 24.5q-25 20 -38.5 53t-13.5 82q0 50 5 96.5t5 86.5q0 39 -19 54.5t-61 15.5v60q42 0 61 15.5t19 54.5q0 40 -5 86.5
t-5 96.5q0 49 13.5 82t38.5 53q20 17 48.5 24.5t74.5 7.5h30v-90h-34q-41 0 -59 -20q-10 -11 -13.5 -27t-3.5 -36q0 -42 5 -84t5 -90q0 -25 -4.5 -42t-12 -29t-17 -19.5t-19.5 -12.5z" />
    <glyph glyph-name="bar.case" horiz-adv-x="215" 
d="M60 800h95v-900h-95v900z" />
    <glyph glyph-name="braceright.case" horiz-adv-x="445" 
d="M253 350q-10 5 -19.5 12.5t-17 19.5t-12 29t-4.5 42q0 48 5 90t5 84q0 20 -3.5 36t-13.5 27q-18 20 -59 20h-34v90h30q46 0 74.5 -7.5t48.5 -24.5q25 -20 38.5 -53t13.5 -82q0 -50 -5 -96.5t-5 -86.5q0 -39 19 -54.5t61 -15.5v-60q-42 0 -61 -15.5t-19 -54.5
q0 -40 5 -86.5t5 -96.5q0 -49 -13.5 -82t-38.5 -53q-20 -17 -48.5 -24.5t-74.5 -7.5h-30v90h34q41 0 59 20q10 11 13.5 27t3.5 36q0 42 -5 84t-5 90q0 25 4.5 42t12 29t17 19.5t19.5 12.5z" />
    <glyph glyph-name="guillemotleft.case" horiz-adv-x="600" 
d="M330 145h-116l-134 165v50l134 165h116l-154 -190zM560 145h-116l-134 165v50l134 165h116l-154 -190z" />
    <glyph glyph-name="periodcentered.case" horiz-adv-x="340" 
d="M100 350q0 29 20.5 49.5t49.5 20.5t49.5 -20.5t20.5 -49.5t-20.5 -49.5t-49.5 -20.5t-49.5 20.5t-20.5 49.5z" />
    <glyph glyph-name="guillemotright.case" horiz-adv-x="600" 
d="M424 335l-154 190h116l134 -165v-50l-134 -165h-116zM194 335l-154 190h116l134 -165v-50l-134 -165h-116z" />
    <glyph glyph-name="endash.case" horiz-adv-x="490" 
d="M470 420v-80h-450v80h450z" />
    <glyph glyph-name="emdash.case" horiz-adv-x="790" 
d="M770 420v-80h-750v80h750z" />
    <glyph glyph-name="bullet.case" horiz-adv-x="560" 
d="M80 350q0 41 16 77.5t43 63.5t63.5 43t77.5 16t77.5 -16t63.5 -43t43 -63.5t16 -77.5t-16 -77.5t-43 -63.5t-63.5 -43t-77.5 -16t-77.5 16t-63.5 43t-43 63.5t-16 77.5z" />
    <glyph glyph-name="guilsinglleft.case" horiz-adv-x="370" 
d="M330 145h-116l-134 165v50l134 165h116l-154 -190z" />
    <glyph glyph-name="guilsinglright.case" horiz-adv-x="370" 
d="M194 335l-154 190h116l134 -165v-50l-134 -165h-116z" />
    <glyph glyph-name="zero.zero" 
d="M55 350q0 75 13 140.5t41.5 114t74 77t111.5 28.5t111.5 -28.5t74 -77t41.5 -114t13 -140.5t-13 -140.5t-41.5 -114t-74 -77t-111.5 -28.5t-111.5 28.5t-74 77t-41.5 114t-13 140.5zM435 350q0 35 -2.5 68t-9.5 62l-209 -362q31 -33 81 -33q41 0 68 21.5t43 58.5
t22.5 84.5t6.5 100.5zM295 615q-41 0 -68 -21.5t-43 -58.5t-22.5 -85t-6.5 -100q0 -35 2.5 -67t8.5 -61l209 360q-31 33 -80 33z" />
    <glyph glyph-name="uni2070.zero" horiz-adv-x="326" 
d="M296 520q0 -89 -34.5 -139.5t-99.5 -50.5q-64 0 -98 50.5t-34 139.5t34 139.5t98 50.5q65 0 99.5 -50.5t34.5 -139.5zM221 520q0 9 -0.5 18t-1.5 17l-85 -145q10 -10 27 -10t28.5 9.5t18.5 25.5t10 38t3 47zM161 640q-15 0 -26 -9.5t-17.5 -25.5t-9.5 -38t-3 -47v-16
t1 -16l83 143q-12 9 -28 9z" />
    <glyph glyph-name="uni2080.zero" horiz-adv-x="326" 
d="M296 180q0 -89 -34.5 -139.5t-99.5 -50.5q-64 0 -98 50.5t-34 139.5t34 139.5t98 50.5q65 0 99.5 -50.5t34.5 -139.5zM221 180q0 9 -0.5 18t-1.5 17l-85 -145q10 -10 27 -10t28.5 9.5t18.5 25.5t10 38t3 47zM161 300q-15 0 -26 -9.5t-17.5 -25.5t-9.5 -38t-3 -47v-16
t1 -16l83 143q-12 9 -28 9z" />
    <glyph glyph-name="zero.numr.zero" horiz-adv-x="326" 
d="M296 520q0 -89 -34.5 -139.5t-99.5 -50.5q-64 0 -98 50.5t-34 139.5t34 139.5t98 50.5q65 0 99.5 -50.5t34.5 -139.5zM221 520q0 9 -0.5 18t-1.5 17l-85 -145q10 -10 27 -10t28.5 9.5t18.5 25.5t10 38t3 47zM161 640q-15 0 -26 -9.5t-17.5 -25.5t-9.5 -38t-3 -47v-16
t1 -16l83 143q-12 9 -28 9z" />
    <glyph glyph-name="zero.dnom.zero" horiz-adv-x="326" 
d="M296 180q0 -89 -34.5 -139.5t-99.5 -50.5q-64 0 -98 50.5t-34 139.5t34 139.5t98 50.5q65 0 99.5 -50.5t34.5 -139.5zM221 180q0 9 -0.5 18t-1.5 17l-85 -145q10 -10 27 -10t28.5 9.5t18.5 25.5t10 38t3 47zM161 300q-15 0 -26 -9.5t-17.5 -25.5t-9.5 -38t-3 -47v-16
t1 -16l83 143q-12 9 -28 9z" />
    <glyph glyph-name="zero.tf.zero" 
d="M55 350q0 75 13 140.5t41.5 114t74 77t111.5 28.5t111.5 -28.5t74 -77t41.5 -114t13 -140.5t-13 -140.5t-41.5 -114t-74 -77t-111.5 -28.5t-111.5 28.5t-74 77t-41.5 114t-13 140.5zM435 350q0 35 -2.5 68t-9.5 62l-209 -362q31 -33 81 -33q41 0 68 21.5t43 58.5
t22.5 84.5t6.5 100.5zM295 615q-41 0 -68 -21.5t-43 -58.5t-22.5 -85t-6.5 -100q0 -35 2.5 -67t8.5 -61l209 360q-31 33 -80 33z" />
    <glyph glyph-name="a.ss01" horiz-adv-x="540" 
d="M370 205q-20 11 -42 15t-43 4q-19 0 -41.5 -3.5t-42 -13t-33 -25t-13.5 -39.5q0 -30 26.5 -49t62.5 -19q34 0 67 17.5t59 49.5v63zM85 428q24 17 69 34.5t107 17.5q51 0 95 -21t73 -59q19 -25 27.5 -58.5t8.5 -81.5v-260h-92v43q-17 -18 -50 -35.5t-88 -17.5
q-37 0 -69 11.5t-55.5 32t-37 49t-13.5 62.5q0 39 15.5 69.5t42.5 51t62 31.5t74 11q34 0 60 -5t55 -15q0 21 -6 36t-14 26q-16 21 -40 30.5t-52 9.5q-35 0 -67.5 -11.5t-58.5 -27.5z" />
    <glyph glyph-name="agrave.ss01" horiz-adv-x="540" 
d="M370 205q-20 11 -42 15t-43 4q-19 0 -41.5 -3.5t-42 -13t-33 -25t-13.5 -39.5q0 -30 26.5 -49t62.5 -19q34 0 67 17.5t59 49.5v63zM85 428q24 17 69 34.5t107 17.5q51 0 95 -21t73 -59q19 -25 27.5 -58.5t8.5 -81.5v-260h-92v43q-17 -18 -50 -35.5t-88 -17.5
q-37 0 -69 11.5t-55.5 32t-37 49t-13.5 62.5q0 39 15.5 69.5t42.5 51t62 31.5t74 11q34 0 60 -5t55 -15q0 21 -6 36t-14 26q-16 21 -40 30.5t-52 9.5q-35 0 -67.5 -11.5t-58.5 -27.5zM273 550l-105 150h105l65 -150h-65z" />
    <glyph glyph-name="aacute.ss01" horiz-adv-x="540" 
d="M370 205q-20 11 -42 15t-43 4q-19 0 -41.5 -3.5t-42 -13t-33 -25t-13.5 -39.5q0 -30 26.5 -49t62.5 -19q34 0 67 17.5t59 49.5v63zM85 428q24 17 69 34.5t107 17.5q51 0 95 -21t73 -59q19 -25 27.5 -58.5t8.5 -81.5v-260h-92v43q-17 -18 -50 -35.5t-88 -17.5
q-37 0 -69 11.5t-55.5 32t-37 49t-13.5 62.5q0 39 15.5 69.5t42.5 51t62 31.5t74 11q34 0 60 -5t55 -15q0 21 -6 36t-14 26q-16 21 -40 30.5t-52 9.5q-35 0 -67.5 -11.5t-58.5 -27.5zM237 550l65 150h105l-105 -150h-65z" />
    <glyph glyph-name="acircumflex.ss01" horiz-adv-x="540" 
d="M370 205q-20 11 -42 15t-43 4q-19 0 -41.5 -3.5t-42 -13t-33 -25t-13.5 -39.5q0 -30 26.5 -49t62.5 -19q34 0 67 17.5t59 49.5v63zM85 428q24 17 69 34.5t107 17.5q51 0 95 -21t73 -59q19 -25 27.5 -58.5t8.5 -81.5v-260h-92v43q-17 -18 -50 -35.5t-88 -17.5
q-37 0 -69 11.5t-55.5 32t-37 49t-13.5 62.5q0 39 15.5 69.5t42.5 51t62 31.5t74 11q34 0 60 -5t55 -15q0 21 -6 36t-14 26q-16 21 -40 30.5t-52 9.5q-35 0 -67.5 -11.5t-58.5 -27.5zM121 550l95 150h110l95 -150h-65l-85 94l-85 -94h-65z" />
    <glyph glyph-name="atilde.ss01" horiz-adv-x="540" 
d="M370 205q-20 11 -42 15t-43 4q-19 0 -41.5 -3.5t-42 -13t-33 -25t-13.5 -39.5q0 -30 26.5 -49t62.5 -19q34 0 67 17.5t59 49.5v63zM85 428q24 17 69 34.5t107 17.5q51 0 95 -21t73 -59q19 -25 27.5 -58.5t8.5 -81.5v-260h-92v43q-17 -18 -50 -35.5t-88 -17.5
q-37 0 -69 11.5t-55.5 32t-37 49t-13.5 62.5q0 39 15.5 69.5t42.5 51t62 31.5t74 11q34 0 60 -5t55 -15q0 21 -6 36t-14 26q-16 21 -40 30.5t-52 9.5q-35 0 -67.5 -11.5t-58.5 -27.5zM97 581q1 22 8.5 42t20.5 35t31 23.5t41 8.5q19 0 37 -7t35 -15.5t33 -15.5t31 -7
q17 0 25.5 11.5t12.5 33.5l65 -21q-1 -22 -8.5 -42t-20.5 -35t-31.5 -23.5t-40.5 -8.5q-19 0 -37 7t-35 15.5t-33 15.5t-31 7q-17 0 -25.5 -11.5t-12.5 -33.5z" />
    <glyph glyph-name="adieresis.ss01" horiz-adv-x="540" 
d="M370 205q-20 11 -42 15t-43 4q-19 0 -41.5 -3.5t-42 -13t-33 -25t-13.5 -39.5q0 -30 26.5 -49t62.5 -19q34 0 67 17.5t59 49.5v63zM85 428q24 17 69 34.5t107 17.5q51 0 95 -21t73 -59q19 -25 27.5 -58.5t8.5 -81.5v-260h-92v43q-17 -18 -50 -35.5t-88 -17.5
q-37 0 -69 11.5t-55.5 32t-37 49t-13.5 62.5q0 39 15.5 69.5t42.5 51t62 31.5t74 11q34 0 60 -5t55 -15q0 21 -6 36t-14 26q-16 21 -40 30.5t-52 9.5q-35 0 -67.5 -11.5t-58.5 -27.5zM127 617q0 26 18 44.5t44 18.5t44.5 -18.5t18.5 -44.5t-18.5 -44t-44.5 -18t-44 18
t-18 44zM312 617q0 26 18 44.5t44 18.5t44.5 -18.5t18.5 -44.5t-18.5 -44t-44.5 -18t-44 18t-18 44z" />
    <glyph glyph-name="aring.ss01" horiz-adv-x="540" 
d="M370 205q-20 11 -42 15t-43 4q-19 0 -41.5 -3.5t-42 -13t-33 -25t-13.5 -39.5q0 -30 26.5 -49t62.5 -19q34 0 67 17.5t59 49.5v63zM85 428q24 17 69 34.5t107 17.5q51 0 95 -21t73 -59q19 -25 27.5 -58.5t8.5 -81.5v-260h-92v43q-17 -18 -50 -35.5t-88 -17.5
q-37 0 -69 11.5t-55.5 32t-37 49t-13.5 62.5q0 39 15.5 69.5t42.5 51t62 31.5t74 11q34 0 60 -5t55 -15q0 21 -6 36t-14 26q-16 21 -40 30.5t-52 9.5q-35 0 -67.5 -11.5t-58.5 -27.5zM182 630q0 42 29 71t71 29t71 -29t29 -71t-29 -71t-71 -29t-71 29t-29 71zM242 630
q0 -17 11.5 -28.5t28.5 -11.5t28.5 11.5t11.5 28.5t-11.5 28.5t-28.5 11.5t-28.5 -11.5t-11.5 -28.5z" />
    <glyph glyph-name="ae.ss01" horiz-adv-x="867" 
d="M599 397q-46 0 -83 -28t-49 -74h256q-5 22 -17.5 41t-29 32.5t-36.5 21t-41 7.5zM244 75q34 0 67 17.5t59 49.5v63q-20 11 -42 15t-43 4q-19 0 -41.5 -3.5t-42 -13t-33 -25t-13.5 -39.5q0 -30 26.5 -49t62.5 -19zM373 0v43q-17 -18 -50 -35.5t-88 -17.5q-37 0 -69 11.5
t-55.5 32t-37 49t-13.5 62.5q0 39 15.5 69.5t42.5 51t62 31.5t74 11q34 0 60 -4t55 -14q-2 21 -7 35t-13 25q-16 21 -40 30.5t-52 9.5q-35 0 -67.5 -11.5t-58.5 -27.5l-46 77q24 17 69 34.5t107 17.5q51 0 96 -21.5t74 -60.5q26 39 69 60.5t96 21.5q49 0 90.5 -18.5
t71.5 -51.5t47 -78t17 -97v-8t-1 -12h-362q3 -32 16 -58t33.5 -44.5t46.5 -29t56 -10.5q27 0 47.5 5.5t36.5 14.5t29 19.5t24 21.5l60 -56q-26 -34 -76 -61t-119 -27q-44 0 -81.5 14.5t-66.5 40.5v-45h-92z" />
    <glyph glyph-name="f.ss02" horiz-adv-x="435" 
d="M380 617q-12 5 -27 9t-33 4q-20 0 -40 -8.5t-32 -24.5q-10 -13 -14 -32.5t-4 -51.5v-43h175v-85h-175v-385h-95v385h-110v85h110v40q0 48 7 78.5t23 53.5q26 37 66 57.5t88 20.5q53 0 96 -20z" />
    <glyph glyph-name="j.ss02" horiz-adv-x="285" 
d="M200 -40q0 -48 -7.5 -79t-22.5 -54q-24 -37 -63.5 -57t-86.5 -20q-29 0 -55.5 5.5t-49.5 19.5l40 78q10 -5 26 -9t32 -4q22 0 42 8.5t31 23.5q10 13 14.5 33t4.5 52v513h95v-510zM90 637q0 26 18 44.5t44 18.5t44.5 -18.5t18.5 -44.5t-18.5 -44t-44.5 -18t-44 18t-18 44z
" />
    <glyph glyph-name="r.ss02" horiz-adv-x="400" 
d="M363 378q-6 3 -19.5 7.5t-36.5 4.5q-37 0 -72 -22t-55 -57v-311h-95v470h92v-54q17 24 52.5 44t88.5 20q36 0 67 -11z" />
    <glyph glyph-name="t.ss02" horiz-adv-x="465" 
d="M415 21q-20 -14 -47.5 -22.5t-64.5 -8.5q-45 0 -77 14.5t-55 40.5q-21 23 -31 55t-10 70v215h-120v85h120v130h95v-130h200v-85h-200v-220q0 -39 18 -60q10 -12 27 -18.5t36 -6.5q18 0 38.5 5t33.5 13z" />
    <glyph glyph-name="uniFB00.ss02" horiz-adv-x="785" 
d="M730 617q-12 5 -27 9t-33 4q-20 0 -40 -8.5t-32 -24.5q-10 -13 -14 -32.5t-4 -51.5v-43h175v-85h-175v-385h-95v385h-255v-385h-95v385h-110v85h110v40q0 48 7 78.5t23 53.5q26 37 66 57.5t88 20.5q53 0 96 -20l-35 -83q-12 5 -27 9t-33 4q-20 0 -40 -8.5t-32 -24.5
q-10 -13 -14 -32.5t-4 -51.5v-43h255v40q0 48 7 78.5t23 53.5q26 37 66 57.5t88 20.5q53 0 96 -20z" />
    <glyph glyph-name="fi.ss02" horiz-adv-x="665" 
d="M470 647q0 26 18 44.5t44 18.5t44.5 -18.5t18.5 -44.5t-18.5 -44t-44.5 -18t-44 18t-18 44zM135 510q0 48 7 78.5t23 53.5q26 37 66 57.5t88 20.5q53 0 96 -20l-35 -83q-12 5 -27 9t-33 4q-20 0 -40 -8.5t-32 -24.5q-10 -13 -14 -32.5t-4 -51.5v-43h350v-470h-95v385
h-255v-385h-95v385h-110v85h110v40z" />
    <glyph glyph-name="fl.ss02" horiz-adv-x="665" 
d="M135 510q0 48 7 78.5t23 53.5q26 37 66 57.5t88 20.5q53 0 96 -20l-35 -83q-12 5 -27 9t-33 4q-20 0 -40 -8.5t-32 -24.5q-10 -13 -14 -32.5t-4 -51.5v-43h255v240h95v-710h-95v385h-255v-385h-95v385h-110v85h110v40z" />
    <glyph glyph-name="uniFB03.ss02" horiz-adv-x="1015" 
d="M930 0h-95v385h-255v-385h-95v385h-255v-385h-95v385h-110v85h110v40q0 48 7 78.5t23 53.5q26 37 66 57.5t88 20.5q53 0 96 -20l-35 -83q-12 5 -27 9t-33 4q-20 0 -40 -8.5t-32 -24.5q-10 -13 -14 -32.5t-4 -51.5v-43h255v40q0 48 7 78.5t23 53.5q26 37 66 57.5t88 20.5
q53 0 96 -20l-35 -83q-12 5 -27 9t-33 4q-20 0 -40 -8.5t-32 -24.5q-10 -13 -14 -32.5t-4 -51.5v-43h350v-470zM820 647q0 26 18 44.5t44 18.5t44.5 -18.5t18.5 -44.5t-18.5 -44t-44.5 -18t-44 18t-18 44z" />
    <glyph glyph-name="uniFB04.ss02" horiz-adv-x="1015" 
d="M835 385h-255v-385h-95v385h-255v-385h-95v385h-110v85h110v40q0 48 7 78.5t23 53.5q26 37 66 57.5t88 20.5q53 0 96 -20l-35 -83q-12 5 -27 9t-33 4q-20 0 -40 -8.5t-32 -24.5q-10 -13 -14 -32.5t-4 -51.5v-43h255v40q0 48 7 78.5t23 53.5q26 37 66 57.5t88 20.5
q53 0 96 -20l-35 -83q-12 5 -27 9t-33 4q-20 0 -40 -8.5t-32 -24.5q-10 -13 -14 -32.5t-4 -51.5v-43h255v240h95v-710h-95v385z" />
    <glyph glyph-name="parenleft.ss03" horiz-adv-x="445" 
d="M245 350q0 -87 21.5 -167t58.5 -152l-86 -41q-42 81 -65.5 171.5t-23.5 188.5t23.5 188.5t65.5 171.5l86 -41q-37 -72 -58.5 -152t-21.5 -167z" />
    <glyph glyph-name="parenright.ss03" horiz-adv-x="445" 
d="M200 350q0 87 -21.5 167t-58.5 152l86 41q42 -81 65.5 -171.5t23.5 -188.5t-23.5 -188.5t-65.5 -171.5l-86 41q37 72 58.5 152t21.5 167z" />
    <glyph glyph-name="bracketleft.ss03" horiz-adv-x="445" 
d="M150 700h245v-90h-150v-520h150v-90h-245v700z" />
    <glyph glyph-name="bracketright.ss03" horiz-adv-x="445" 
d="M295 0h-245v90h150v520h-150v90h245v-700z" />
    <glyph glyph-name="braceleft.ss03" horiz-adv-x="445" 
d="M192 350q22 -11 37.5 -32.5t15.5 -64.5q0 -30 -2.5 -51.5t-2.5 -41.5q0 -39 18.5 -54.5t57.5 -15.5h29v-90h-45q-87 0 -121 38t-34 112q0 26 2.5 54.5t2.5 45.5q0 39 -19 54.5t-61 15.5v60q42 0 61 15.5t19 54.5q0 17 -2.5 45.5t-2.5 54.5q0 73 34 111.5t121 38.5h45v-90
h-29q-39 0 -57.5 -15.5t-18.5 -54.5q0 -20 2.5 -41.5t2.5 -51.5q0 -43 -15.5 -64.5t-37.5 -32.5z" />
    <glyph glyph-name="bar.ss03" horiz-adv-x="215" 
d="M60 700h95v-700h-95v700z" />
    <glyph glyph-name="braceright.ss03" horiz-adv-x="445" 
d="M253 350q-22 11 -37.5 32.5t-15.5 64.5q0 30 2.5 51.5t2.5 41.5q0 39 -18.5 54.5t-57.5 15.5h-29v90h45q87 0 121 -38.5t34 -111.5q0 -26 -2.5 -54.5t-2.5 -45.5q0 -39 19 -54.5t61 -15.5v-60q-42 0 -61 -15.5t-19 -54.5q0 -17 2.5 -45.5t2.5 -54.5q0 -74 -34 -112
t-121 -38h-45v90h29q39 0 57.5 15.5t18.5 54.5q0 20 -2.5 41.5t-2.5 51.5q0 43 15.5 64.5t37.5 32.5z" />
    <glyph glyph-name="endash.ss04" horiz-adv-x="1090" 
d="M1070 295v-80h-1050v80h1050z" />
    <glyph glyph-name="emdash.ss04" horiz-adv-x="1390" 
d="M1370 295v-80h-1350v80h1350z" />
    <glyph glyph-name="endash.case.ss04" horiz-adv-x="1090" 
d="M1070 420v-80h-1050v80h1050z" />
    <glyph glyph-name="emdash.case.ss04" horiz-adv-x="1390" 
d="M1370 420v-80h-1350v80h1350z" />
    <glyph glyph-name="asterisk.ss05" horiz-adv-x="500" 
d="M170 490l-122 70l40 70l122 -71v141h80v-141l122 71l40 -70l-121 -70l121 -70l-40 -70l-122 70v-140h-80v140l-122 -70l-40 70z" />
    <glyph glyph-name="asterisk.ss06" horiz-adv-x="500" 
d="M40 462l146 47l-90 125l64 46l90 -125l91 125l64 -47l-91 -124l147 -48l-25 -76l-146 48v-153h-80v154l-146 -47z" />
    <glyph glyph-name="asterisk.ss07" horiz-adv-x="500" 
d="M250 570l70 122l70 -40l-71 -122h141v-80h-141l71 -122l-70 -40l-70 121l-70 -121l-70 40l70 122h-140v80h140l-70 122l70 40z" />
    <glyph glyph-name="asterisk.ss08" horiz-adv-x="500" 
d="M249 571l-70 -40l-69 121l70 40zM110 328l69 121l70 -41l-69 -120zM250 408l69 41l71 -121l-70 -40zM319 531l-69 40l70 121l70 -40zM320 450v80h140v-80h-140zM40 530h139v-80h-139v80z" />
    <glyph glyph-name="asterisk.ss09" horiz-adv-x="500" 
d="M290 700v-169h-80v169h80zM291 450v80h169v-80h-169zM210 280v169h80v-169h-80zM40 530h169v-80h-169v80zM200 384l-80 -80l-57 56l81 80zM144 540l-80 80l56 57l80 -81zM437 620l-80 -80l-57 56l81 80zM380 303l-80 80l56 57l80 -81z" />
    <glyph glyph-name="f_f_i.ss02" horiz-adv-x="1015" 
d="M930 0h-95v385h-255v-385h-95v385h-255v-385h-95v385h-110v85h110v40q0 48 7 78.5t23 53.5q26 37 66 57.5t88 20.5q53 0 96 -20l-35 -83q-12 5 -27 9t-33 4q-20 0 -40 -8.5t-32 -24.5q-10 -13 -14 -32.5t-4 -51.5v-43h255v40q0 48 7 78.5t23 53.5q26 37 66 57.5t88 20.5
q53 0 96 -20l-35 -83q-12 5 -27 9t-33 4q-20 0 -40 -8.5t-32 -24.5q-10 -13 -14 -32.5t-4 -51.5v-43h350v-470zM820 647q0 26 18 44.5t44 18.5t44.5 -18.5t18.5 -44.5t-18.5 -44t-44.5 -18t-44 18t-18 44z" />
    <glyph glyph-name="f_f.ss02" horiz-adv-x="785" 
d="M730 617q-12 5 -27 9t-33 4q-20 0 -40 -8.5t-32 -24.5q-10 -13 -14 -32.5t-4 -51.5v-43h175v-85h-175v-385h-95v385h-255v-385h-95v385h-110v85h110v40q0 48 7 78.5t23 53.5q26 37 66 57.5t88 20.5q53 0 96 -20l-35 -83q-12 5 -27 9t-33 4q-20 0 -40 -8.5t-32 -24.5
q-10 -13 -14 -32.5t-4 -51.5v-43h255v40q0 48 7 78.5t23 53.5q26 37 66 57.5t88 20.5q53 0 96 -20z" />
    <glyph glyph-name="f_l.ss02" horiz-adv-x="665" 
d="M135 510q0 48 7 78.5t23 53.5q26 37 66 57.5t88 20.5q53 0 96 -20l-35 -83q-12 5 -27 9t-33 4q-20 0 -40 -8.5t-32 -24.5q-10 -13 -14 -32.5t-4 -51.5v-43h255v240h95v-710h-95v385h-255v-385h-95v385h-110v85h110v40z" />
    <glyph glyph-name="f_i.ss02" horiz-adv-x="665" 
d="M470 647q0 26 18 44.5t44 18.5t44.5 -18.5t18.5 -44.5t-18.5 -44t-44.5 -18t-44 18t-18 44zM135 510q0 48 7 78.5t23 53.5q26 37 66 57.5t88 20.5q53 0 96 -20l-35 -83q-12 5 -27 9t-33 4q-20 0 -40 -8.5t-32 -24.5q-10 -13 -14 -32.5t-4 -51.5v-43h350v-470h-95v385
h-255v-385h-95v385h-110v85h110v40z" />
    <glyph glyph-name="f_f_l.ss02" horiz-adv-x="1015" 
d="M835 385h-255v-385h-95v385h-255v-385h-95v385h-110v85h110v40q0 48 7 78.5t23 53.5q26 37 66 57.5t88 20.5q53 0 96 -20l-35 -83q-12 5 -27 9t-33 4q-20 0 -40 -8.5t-32 -24.5q-10 -13 -14 -32.5t-4 -51.5v-43h255v40q0 48 7 78.5t23 53.5q26 37 66 57.5t88 20.5
q53 0 96 -20l-35 -83q-12 5 -27 9t-33 4q-20 0 -40 -8.5t-32 -24.5q-10 -13 -14 -32.5t-4 -51.5v-43h255v240h95v-710h-95v385z" />
    <glyph glyph-name="uni00AD.case" horiz-adv-x="460" 
d="M380 390v-80h-300v80h300z" />
    <glyph glyph-name="space.frac" horiz-adv-x="54" 
 />
    <glyph glyph-name="uni2007.tf" 
 />
    <glyph glyph-name="uni2007" unicode="&#x2007;" 
 />
    <glyph glyph-name="uni2008" unicode="&#x2008;" horiz-adv-x="340" 
 />
    <glyph glyph-name="uni200B" unicode="&#x200b;" horiz-adv-x="0" 
 />
    </font>
</defs>
</svg>
