<?xml version="1.0" standalone="no"?>
<!DOCTYPE svg PUBLIC "-//W3C//DTD SVG 1.1//EN" "http://www.w3.org/Graphics/SVG/1.1/DTD/svg11.dtd" >
<svg xmlns="http://www.w3.org/2000/svg">
<metadata>Generated by IcoMoon</metadata>
<defs>
<font id="icomoon" horiz-adv-x="1024">
<font-face units-per-em="1024" ascent="960" descent="-64" />
<missing-glyph horiz-adv-x="1024" />
<glyph unicode="&#x20;" horiz-adv-x="512" d="" />
<glyph unicode="&#xe900;" glyph-name="carrot-down" horiz-adv-x="1819" d="M1807.059 947.953h-1807.059l855.341-1011.953c0 0 1108.329 1168.565 951.718 1011.953z" />
<glyph unicode="&#xe901;" glyph-name="carrot-up" horiz-adv-x="1819" d="M12.047-51.953h1807.059l-843.294 1011.953c0 0-1120.376-1168.565-963.765-1011.953z" />
<glyph unicode="&#xe902;" glyph-name="chevron-down" horiz-adv-x="1813" d="M906.492-64l-906.492 906.492 117.508 117.508 788.984-788.984 788.984 788.984 117.508-117.508z" />
<glyph unicode="&#xe903;" glyph-name="chevron-left" horiz-adv-x="578" d="M0 448l512 512 66.37-66.37-445.63-445.63 445.63-445.63-66.37-66.37z" />
<glyph unicode="&#xe904;" glyph-name="chevron-right" horiz-adv-x="578" d="M578.37 448l-512-512-66.37 66.37 445.63 445.63-445.63 445.63 66.37 66.37z" />
<glyph unicode="&#xe905;" glyph-name="chevron-up" horiz-adv-x="1813" d="M906.492 960l906.492-906.492-117.508-117.508-788.984 788.984-788.984-788.984-117.508 117.508z" />
<glyph unicode="&#xe906;" glyph-name="download" horiz-adv-x="631" d="M279.704 960h75.852v-796.444h-75.852v796.444zM317.63 111.407l-317.63 312.889 52.148 52.148 265.481-260.741 260.741 260.741 52.148-52.148zM28.444 11.852h578.37v-75.852h-578.37v75.852z" />
<glyph unicode="&#xe907;" glyph-name="fb" d="M1024 448c0-281.6-230.4-512-512-512s-512 230.4-512 512 230.4 512 512 512c281.6 0 512-230.4 512-512zM576 614.4h85.333v106.667h-85.333c-68.267 0-123.733-59.733-123.733-136.533v-51.2h-85.333v-102.4h85.333v-251.733h102.4v251.733h102.4v102.4h-102.4v51.2c0 17.067 8.533 29.867 21.333 29.867z" />
<glyph unicode="&#xe908;" glyph-name="instagram" d="M686.933 597.333c0-14.138-11.462-25.6-25.6-25.6s-25.6 11.462-25.6 25.6c0 14.138 11.462 25.6 25.6 25.6s25.6-11.462 25.6-25.6zM512 960c-281.6 0-512-230.4-512-512s230.4-512 512-512c281.6 0 512 230.4 512 512s-230.4 512-512 512zM729.6 256c0-17.067-12.8-29.867-29.867-29.867h-379.733c-17.067 0-29.867 12.8-29.867 29.867v217.6h98.133c0-8.533-4.267-17.067-4.267-29.867 0-72.533 59.733-128 128-128s128 59.733 128 128c0 8.533 0 17.067-4.267 29.867h89.6v-217.6zM430.933 448c0 46.933 38.4 85.333 85.333 85.333s85.333-38.4 85.333-85.333-38.4-85.333-85.333-85.333c-46.933 0-85.333 38.4-85.333 85.333zM729.6 520.533h-106.667c-21.333 34.133-64 55.467-106.667 55.467-46.933 0-85.333-21.333-106.667-59.733h-115.2v123.733c0 17.067 12.8 29.867 29.867 29.867h379.733c17.067 0 29.867-12.8 29.867-29.867v-119.467z" />
<glyph unicode="&#xe909;" glyph-name="location" horiz-adv-x="735" d="M362.762-64c-9.184 0-13.776 4.592-18.368 9.184-18.368 9.184-344.395 275.516-344.395 638.278 0 220.413 151.534 376.538 367.354 376.538 211.229 0 367.354-160.717 367.354-376.538 0-353.578-339.803-629.094-353.578-638.278-4.592-9.184-13.776-9.184-18.368-9.184zM367.354 895.713c-183.677 0-303.067-123.982-303.067-312.251 0-280.108 225.004-509.704 298.475-573.991 73.471 64.287 312.251 298.475 312.251 573.991-4.592 179.085-133.166 312.251-307.659 312.251zM367.354 441.112c-87.247 0-156.126 68.879-156.126 156.126s68.879 156.126 156.126 156.126c87.247 0 156.126-68.879 156.126-156.126s-68.879-156.126-156.126-156.126zM367.354 689.076c-50.511 0-91.839-41.327-91.839-91.839s41.327-91.839 91.839-91.839c50.511 0 91.839 41.327 91.839 91.839s-41.327 91.839-91.839 91.839z" />
<glyph unicode="&#xe90a;" glyph-name="logo" horiz-adv-x="3894" d="M763.661 458.256c-34.712 36.29-78.891 53.646-132.536 53.646s-97.824-18.934-132.536-53.646c-34.712-36.29-52.068-82.046-52.068-135.692s17.356-97.824 50.49-132.536c34.712-34.712 78.891-52.068 132.536-52.068s97.824 17.356 132.536 52.068c33.134 34.712 50.49 78.891 50.49 132.536 1.578 53.646-15.778 100.98-48.912 135.692zM556.968 207.384c-17.356 28.401-26.823 67.846-26.823 115.18 0 48.912 9.467 88.357 26.823 116.758 18.934 28.401 42.601 44.179 74.157 44.179s56.801-14.2 74.157-44.179c17.356-28.401 26.823-69.424 26.823-118.336s-9.467-88.357-26.823-115.18c-17.356-28.401-42.601-42.601-74.157-42.601-31.556 1.578-56.801 15.778-74.157 44.179zM1754.527 240.518c-3.156 3.156-4.733 4.733-7.889 4.733l-3.156-1.578c-11.045-15.778-26.823-28.401-44.179-39.445-18.934-9.467-36.29-15.778-55.223-15.778-36.29 0-64.69 11.045-83.624 34.712s-29.978 56.801-29.978 99.402c0 15.778 0 29.978 1.578 44.179h213.005c12.622 0 15.778 6.311 15.778 12.622 0 33.134-14.2 64.69-41.023 91.513s-61.535 41.023-102.558 41.023c-48.912 0-88.357-18.934-119.914-55.223s-47.334-82.046-47.334-135.692c0-52.068 15.778-96.247 48.912-132.536 31.556-36.29 72.579-53.646 119.914-53.646 22.089 0 42.601 4.733 61.535 14.2s37.867 23.667 55.223 41.023c17.356 18.934 25.245 29.978 25.245 36.29-3.156 6.311-3.156 11.045-6.311 14.2v0zM1565.19 458.256c14.2 17.356 31.556 25.245 50.49 25.245 20.512 0 37.867-6.311 50.49-18.934s20.512-29.978 20.512-48.912c0-7.889-3.156-12.622-9.467-15.778s-18.934-4.733-34.712-4.733l-107.291-3.156c6.311 28.401 15.778 50.49 29.978 66.268zM2781.683 459.834c-34.712 36.29-78.891 53.646-132.536 53.646s-97.824-18.934-132.536-55.223c-34.712-36.29-52.068-82.046-52.068-137.27 0-53.646 17.356-97.824 50.49-134.114 34.712-34.712 78.891-52.068 132.536-52.068s97.824 17.356 132.536 52.068c33.134 34.712 50.49 80.468 50.49 134.114 1.578 56.801-15.778 102.558-48.912 138.847zM2751.704 324.142c0-48.912-9.467-88.357-26.823-116.758s-42.601-42.601-74.157-42.601-56.801 14.2-74.157 42.601c-17.356 28.401-26.823 67.846-26.823 115.18 0 48.912 9.467 88.357 26.823 118.336 18.934 29.978 42.601 44.179 74.157 44.179s56.801-14.2 74.157-44.179c17.356-28.401 26.823-67.846 26.823-116.758zM3608.456 436.166c12.622 14.2 45.757 28.401 86.78 28.401 23.667 0 41.023-6.311 52.068-20.512 11.045-12.622 17.356-34.712 17.356-63.112l-1.578-142.003c0-25.245-3.156-42.601-7.889-50.49s-17.356-12.622-34.712-14.2c-4.733 0-7.889-4.733-7.889-11.045 0-7.889 3.156-12.622 7.889-12.622 11.045 0 23.667 1.578 39.445 1.578 17.356 1.578 31.556 1.578 44.179 1.578s26.823-1.578 44.179-1.578c15.778-1.578 28.401-1.578 37.867-1.578 4.733 0 7.889 4.733 7.889 12.622s-3.156 11.045-7.889 11.045c-22.089 3.156-36.29 7.889-42.601 15.778s-9.467 23.667-9.467 48.912l1.578 160.937c0 34.712-9.467 63.112-29.978 83.624s-48.912 31.556-83.624 31.556c-28.401 0-74.157-4.733-113.602-39.445l1.578 33.134c0 4.733-4.733 7.889-12.622 7.889-3.156 0-11.045-4.733-14.2-6.311-20.512-9.467-59.957-4.733-85.202-7.889h-4.733c-4.733-1.578-6.311-4.733-6.311-11.045 0-7.889 3.156-11.045 7.889-12.622 17.356-1.578 28.401-6.311 34.712-12.622 4.733-6.311 7.889-20.512 7.889-39.445v-186.182c0-25.245-3.156-41.023-9.467-48.912s-20.512-12.622-42.601-15.778c-4.733 0-7.889-4.733-7.889-11.045 0-7.889 3.156-12.622 7.889-12.622 11.045 0 23.667 1.578 37.867 1.578 15.778 1.578 31.556 1.578 44.179 1.578s28.401 0 44.179-1.578c15.778-1.578 28.401-1.578 39.445-1.578 4.733 0 7.889 4.733 7.889 12.622 0 9.467-4.733 11.045-7.889 11.045-17.356 1.578-29.978 6.311-34.712 14.2s-7.889 25.245-7.889 50.49v195.649zM437.054 174.25v0c-22.089 3.156-36.29 7.889-42.601 15.778s-9.467 23.667-9.467 48.912v160.937c0 34.712-11.045 63.112-31.556 83.624-22.089 20.512-50.49 31.556-88.357 31.556-36.29 0-72.579-9.467-108.869-44.179 0 23.667 0 173.559 0 200.382l1.578 45.757c0 4.733-4.733 7.889-12.622 7.889-3.156 0-11.045-4.733-14.2-6.311-7.889-4.733-18.934-12.622-31.556-15.778-17.356-4.733-28.401-6.311-53.646-9.467h-4.733c-4.733-1.578-6.311-4.733-6.311-11.045 0-7.889 3.156-11.045 7.889-12.622 17.356-1.578 28.401-6.311 34.712-12.622 4.733-6.311 7.889-20.512 7.889-39.445v-377.097c0-25.245-3.156-42.601-9.467-50.49s-20.512-12.622-42.601-15.778c-4.733 0-7.889-4.733-7.889-11.045 0-7.889 3.156-12.622 7.889-12.622 11.045 0 23.667 1.578 37.867 1.578 15.778 1.578 31.556 1.578 44.179 1.578s28.401 0 47.334-1.578c17.356-1.578 31.556-1.578 42.601-1.578 4.733 0 7.889 4.733 7.889 12.622s-3.156 11.045-7.889 11.045c-18.934 1.578-33.134 7.889-39.445 17.356s-9.467 25.245-9.467 48.912v184.604c23.667 25.245 50.49 37.867 82.046 37.867 50.49 0 75.735-26.823 75.735-83.624v-142.003c0-25.245-3.156-42.601-7.889-50.49s-17.356-12.622-34.712-14.2c-4.733 0-7.889-4.733-7.889-11.045 0-7.889 3.156-12.622 7.889-12.622 11.045 0 23.667 1.578 39.445 1.578 17.356 1.578 31.556 1.578 45.757 1.578 12.622 0 26.823 0 44.179-1.578 15.778-1.578 28.401-1.578 39.445-1.578 4.733 0 7.889 4.733 7.889 12.622-3.156 7.889-6.311 11.045-11.045 12.622zM1440.542 172.672c-22.089 3.156-36.29 7.889-42.601 15.778s-9.467 23.667-9.467 48.912l1.578 160.937c0 34.712-9.467 63.112-29.978 83.624s-48.912 31.556-83.624 31.556c-22.089 0-75.735-4.733-116.758-50.49-4.733 7.889-9.467 14.2-14.2 18.934-20.512 20.512-48.912 31.556-83.624 31.556-28.401 0-66.268-4.733-105.713-39.445l1.578 33.134c0 4.733-4.733 7.889-12.622 7.889-3.156 0-11.045-4.733-14.2-6.311-7.889-4.733-18.934-12.622-31.556-15.778-17.356-4.733-28.401-6.311-53.646-9.467h-4.733c-4.733-1.578-6.311-4.733-6.311-11.045 0-7.889 3.156-11.045 7.889-12.622 17.356-1.578 28.401-6.311 34.712-12.622 4.733-6.311 7.889-20.512 7.889-39.445v-170.404c0-25.245-3.156-41.023-9.467-48.912s-20.512-12.622-42.601-15.778c-4.733 0-7.889-4.733-7.889-11.045 0-7.889 3.156-12.622 7.889-12.622 11.045 0 23.667 1.578 37.867 1.578 15.778 1.578 31.556 1.578 44.179 1.578s28.401 0 44.179-1.578c15.778-1.578 28.401-1.578 39.445-1.578 4.733 0 7.889 4.733 7.889 12.622 0 9.467-4.733 11.045-7.889 11.045-17.356 1.578-29.978 6.311-34.712 14.2s-7.889 25.245-7.889 50.49v187.76c12.622 14.2 50.49 39.445 77.313 39.445 23.667 0 41.023-6.311 52.068-20.512 11.045-12.622 17.356-34.712 17.356-63.112l-1.578-143.581c0-25.245-3.156-42.601-7.889-50.49s-17.356-12.622-34.712-14.2c-4.733 0-7.889-4.733-7.889-11.045 0-7.889 3.156-12.622 7.889-12.622 11.045 0 22.089 1.578 36.29 1.578 15.778 1.578 29.978 1.578 42.601 1.578s26.823 0 41.023-1.578c14.2-1.578 25.245-1.578 36.29-1.578 4.733 0 7.889 4.733 7.889 12.622 0 9.467-4.733 11.045-7.889 11.045-17.356 1.578-28.401 6.311-33.134 14.2-6.311 7.889-7.889 25.245-7.889 50.49l1.578 162.515c0 9.467 0 20.512-3.156 28.401 7.889 17.356 48.912 36.29 75.735 36.29 23.667 0 41.023-6.311 52.068-20.512 11.045-12.622 17.356-34.712 17.356-63.112l-1.578-142.003c0-25.245-3.156-42.601-7.889-50.49s-17.356-12.622-34.712-14.2c-4.733 0-7.889-4.733-7.889-11.045 0-7.889 3.156-12.622 7.889-12.622 11.045 0 23.667 1.578 39.445 1.578 17.356 1.578 31.556 1.578 44.179 1.578s26.823-1.578 44.179-1.578c15.778-1.578 28.401-1.578 37.867-1.578 4.733 0 7.889 4.733 7.889 12.622 1.578 4.733-1.578 9.467-6.311 9.467zM2246.804 825.886c-4.733 3.156-6.311 11.045-7.889 20.512-4.733 23.667-12.622 58.379-58.379 59.957-47.334 1.578-53.646-20.512-58.379-36.29-1.578-6.311-3.156-11.045-6.311-11.045-3.156-1.578-4.733 1.578-9.467 4.733-6.311 6.311-14.2 14.2-28.401 3.156-15.778-11.045-15.778-34.712-14.2-55.223 0-14.2 1.578-28.401-4.733-36.29-20.512-29.978-26.823-50.49-29.978-69.424-1.578-6.311-7.889-9.467-12.622-9.467-14.2-1.578-22.089-4.733-25.245-11.045-4.733-7.889 1.578-17.356 4.733-26.823 3.156-6.311 6.311-11.045 6.311-14.2 0-18.934-7.889-55.223-25.245-108.869 0-3.156-1.578-4.733-1.578-4.733 0-1.578-1.578-3.156-3.156-3.156s-3.156 1.578-3.156 4.733c-1.578 7.889 0 105.713 1.578 112.025 0 1.578 3.156 3.156 4.733 4.733 3.156 1.578 7.889 3.156 7.889 9.467 0 1.578-1.578 4.733-4.733 11.045-3.156 4.733-7.889 12.622-7.889 15.778 0 0 0 1.578 0 3.156 0 7.889 0 26.823 6.311 33.134 1.578 1.578 3.156 1.578 4.733 1.578 28.401 0 45.757 9.467 45.757 26.823 0 12.622-4.733 17.356-9.467 20.512-7.889 4.733-17.356 1.578-23.667-1.578-4.733-3.156-7.889-3.156-7.889-1.578-1.578 1.578 0 4.733 1.578 7.889 0 0 1.578 1.578 3.156 1.578 12.622 7.889 42.601 26.823 42.601 61.535 0 45.757-6.311 108.869-66.268 108.869-61.535 0-86.78-64.69-86.78-97.824s14.2-47.334 23.667-56.801c1.578-1.578 3.156-3.156 1.578-3.156 0-1.578-1.578-1.578-3.156-3.156s-3.156-1.578-4.733-3.156c-7.889-6.311-11.045-14.2-11.045-20.512 0-15.778 18.934-29.978 33.134-42.601 9.467-7.889 18.934-15.778 18.934-20.512 0-1.578-3.156-1.578-7.889-3.156-6.311 0-15.778-1.578-15.778-11.045 0-11.045 7.889-15.778 14.2-20.512 4.733-3.156 9.467-4.733 9.467-9.467s-14.2-14.2-17.356-14.2c-3.156 0-4.733 1.578-6.311 4.733-3.156 4.733-6.311 11.045-20.512 11.045 0 36.29-17.356 50.49-26.823 59.957-4.733 4.733-9.467 7.889-9.467 12.622 0 23.667-17.356 67.846-47.334 67.846-15.778 0-25.245-6.311-34.712-12.622-7.889-4.733-15.778-11.045-25.245-11.045-58.379 0-93.091-26.823-93.091-74.157 0-28.401 18.934-48.912 36.29-48.912s25.245 3.156 33.134 4.733c4.733 1.578 9.467 3.156 17.356 3.156 6.311 0 6.311-1.578 7.889-4.733 3.156-4.733 6.311-9.467 28.401-9.467 12.622 0 20.512 3.156 25.245 6.311 4.733 1.578 7.889 4.733 12.622 4.733 7.889 0 12.622-6.311 15.778-17.356 3.156-9.467 3.156-20.512 3.156-25.245v0c0-9.467 1.578-17.356 23.667-17.356 25.245 0 52.068-48.912 64.69-82.046-25.245-6.311-47.334-18.934-67.846-37.867-28.401-26.823-42.601-59.957-42.601-96.247 0-22.089 6.311-44.179 18.934-61.535 15.778-23.667 33.134-39.445 50.49-48.912-18.934-3.156-37.867-11.045-56.801-20.512-17.356-9.467-28.401-22.089-29.978-34.712s3.156-25.245 15.778-41.023c9.467-12.622 22.089-23.667 37.867-29.978-23.667-9.467-44.179-22.089-61.535-39.445-17.356-18.934-26.823-37.867-26.823-56.801 0-28.401 14.2-53.646 42.601-74.157s63.112-29.978 105.713-29.978c63.112 0 118.336 15.778 164.092 47.334s69.424 69.424 69.424 112.025c0 28.401-11.045 50.49-33.134 66.268s-53.646 23.667-91.513 25.245l-91.513 1.578c-17.356 0-31.556 3.156-42.601 9.467-9.467 6.311-14.2 12.622-14.2 22.089 0 6.311 6.311 15.778 17.356 22.089 12.622 4.733 28.401 7.889 48.912 7.889h15.778c0 0 1.578 0 1.578 0h1.578c1.578 0 3.156 0 3.156 0 37.867 1.578 69.424 14.2 96.247 39.445 28.401 25.245 42.601 58.379 42.601 97.824 0 14.2-1.578 28.401-6.311 41.023-1.578 4.733-1.578 9.467 1.578 14.2 6.311 9.467 23.667 14.2 36.29 17.356 1.578 0 3.156 0 4.733 1.578 4.733 1.578 6.311 4.733 6.311 12.622 0 4.733-1.578 11.045-7.889 11.045-11.045 0-18.934 0-26.823 0-9.467 0-15.778 0-26.823 0-17.356 0-36.29 6.311-45.757 12.622-12.622 6.311-25.245 12.622-37.867 15.778 3.156 17.356 12.622 44.179 33.134 55.223 12.622 6.311 28.401 6.311 45.757-1.578 6.311-3.156 12.622-1.578 20.512 3.156 9.467 4.733 14.2 14.2 14.2 23.667 0 1.578 0 3.156 1.578 3.156 3.156 1.578 12.622-3.156 20.512-6.311 6.311-3.156 12.622-6.311 17.356-6.311 6.311 0 9.467 1.578 12.622 3.156s4.733 1.578 7.889 1.578c3.156 0 9.467-3.156 17.356-7.889 6.311-3.156 14.2-7.889 18.934-7.889 9.467-1.578 33.134-3.156 42.601 11.045 6.311 11.045 6.311 25.245-4.733 44.179-15.778 29.978-56.801 66.268-85.202 66.268-7.889 0-15.778-1.578-20.512-3.156s-7.889-1.578-12.622-1.578c-4.733 0-7.889 0-11.045 0-4.733 0-7.889 1.578-15.778 1.578-9.467 0-17.356-3.156-23.667-4.733-4.733-1.578-7.889-3.156-11.045-3.156-6.311 0-12.622 3.156-12.622 6.311 0 4.733 6.311 7.889 17.356 7.889 14.2 0 41.023 1.578 47.334 3.156 11.045 3.156 28.401 15.778 28.401 28.401 0 11.045-11.045 18.934-20.512 18.934-6.311 0-9.467 3.156-9.467 7.889 0 6.311 3.156 6.311 9.467 6.311 3.156 0 6.311-3.156 9.467-6.311 6.311-4.733 12.622-11.045 22.089-11.045 15.778 0 39.445 11.045 39.445 25.245 0 6.311-1.578 9.467-3.156 12.622-1.578 4.733-3.156 9.467 1.578 14.2 9.467 9.467 22.089 0 31.556-4.733l1.578-1.578c6.311-3.156 18.934-6.311 26.823-3.156 4.733 1.578 7.889 4.733 9.467 9.467-1.578-4.733 1.578 11.045-17.356 22.089zM2044.844 631.815c-1.578-6.311-17.356-31.556-25.245-44.179 0-1.578-1.578 0-1.578 0s-1.578 0-1.578 1.578c3.156 20.512 6.311 36.29 14.2 44.179 1.578 1.578 4.733 4.733 7.889 4.733 1.578 0 3.156-1.578 4.733-3.156s1.578-3.156 1.578-3.156zM1831.84 59.069c0 28.401 15.778 50.49 47.334 67.846 14.2-4.733 29.978-7.889 47.334-7.889l91.513-1.578c28.401 0 47.334-4.733 59.957-12.622 11.045-7.889 17.356-20.512 17.356-37.867 0-26.823-14.2-48.912-44.179-66.268s-64.69-26.823-104.136-26.823c-33.134 0-59.957 7.889-82.046 23.667s-33.134 36.29-33.134 61.535zM1942.287 541.88c-1.578 0-1.578 0-3.156 1.578l-3.156 6.311c-6.311 12.622-14.2 26.823-20.512 36.29 0 0-1.578 1.578 0 3.156 1.578 3.156 3.156 7.889 4.733 11.045 0 0 0 1.578 1.578 1.578 0 0 1.578 0 1.578 0 17.356-11.045 18.934-28.401 20.512-45.757 0-3.156 0-4.733 0-7.889 1.578-4.733 0-6.311-1.578-6.311zM2024.333 387.254c0-72.579-22.089-110.447-64.69-110.447-26.823 0-42.601 17.356-48.912 28.401-9.467 14.2-14.2 39.445-14.2 72.579 0 72.579 22.089 108.869 63.112 108.869v0c22.089 0 39.445-7.889 48.912-23.667 11.045-17.356 15.778-42.601 15.778-75.735zM3444.364 500.857c-9.467 0-22.089-1.578-37.867-3.156-11.045-1.578-18.934-1.578-25.245-1.578-9.467 0-22.089 1.578-34.712 3.156s-25.245 3.156-36.29 3.156c-1.578 0-3.156 0-4.733-1.578s-3.156-6.311-3.156-11.045c0-7.889 3.156-11.045 7.889-11.045 26.823 0 50.49-9.467 34.712-45.757l-83.624-186.182-89.935 205.116c-11.045 25.245 22.089 26.823 39.445 23.667 4.733 0 6.311 4.733 6.311 12.622s-3.156 12.622-7.889 12.622c-11.045 0-26.823-1.578-42.601-3.156s-28.401-3.156-39.445-3.156c-9.467 0-29.978 1.578-42.601 3.156s-31.556 3.156-41.023 3.156c-1.578 0-3.156 0-4.733-1.578s-3.156-4.733-3.156-11.045c0-7.889 1.578-12.622 6.311-12.622 28.401 0 41.023-17.356 47.334-28.401l28.401-61.535-61.535-137.27-100.98 198.804c-11.045 25.245 26.823 28.401 37.867 28.401 4.733 0 6.311 4.733 6.311 12.622s-3.156 12.622-7.889 12.622c-11.045 0-26.823-1.578-42.601-3.156s-28.401-3.156-39.445-3.156c-9.467 0-29.978 1.578-42.601 3.156s-31.556 3.156-41.023 3.156c-1.578 0-3.156 0-4.733-1.578s-3.156-4.733-3.156-11.045c0-7.889 1.578-12.622 6.311-12.622 29.978 0 42.601-15.778 47.334-28.401l149.892-295.051c6.311-12.622 23.667-11.045 29.978 0 18.934 39.445 56.801 127.803 83.624 186.182l86.78-186.182c7.889-14.2 23.667-11.045 29.978 0l140.425 306.096c9.467 17.356 14.2 17.356 41.023 17.356 4.733 0 6.311 4.733 6.311 12.622 11.045 7.889 9.467 12.622 4.733 12.622zM2448.764 496.123c-9.467 9.467-20.512 14.2-31.556 15.778-48.912 6.311-86.78-22.089-113.602-41.023l1.578 33.134c0 4.733-4.733 7.889-12.622 7.889-3.156 0-11.045-4.733-14.2-6.311-7.889-4.733-18.934-12.622-31.556-15.778-17.356-4.733-28.401-6.311-53.646-9.467h-4.733c-4.733-1.578-6.311-4.733-6.311-11.045 0-7.889 3.156-11.045 7.889-12.622 17.356-1.578 28.401-6.311 34.712-12.622 4.733-6.311 7.889-20.512 7.889-39.445v-171.982c0-25.245-3.156-41.023-9.467-47.334-6.311-7.889-20.512-12.622-42.601-15.778-4.733 0-7.889-4.733-7.889-11.045 0-7.889 3.156-12.622 7.889-12.622 11.045 0 25.245 1.578 41.023 1.578 18.934 1.578 34.712 1.578 47.334 1.578s29.978 0 50.49-1.578c18.934-1.578 34.712-1.578 45.757-1.578 4.733 0 7.889 4.733 7.889 12.622 0 9.467-4.733 11.045-7.889 11.045-25.245 3.156-41.023 9.467-48.912 18.934s-11.045 23.667-11.045 47.334v203.538c7.889 7.889 36.29 26.823 66.268 18.934 6.311-1.578 14.2-4.733 22.089-12.622 11.045-7.889 23.667-12.622 34.712-14.2 9.467 0 17.356 3.156 23.667 9.467s9.467 15.778 9.467 26.823c0 11.045-4.733 20.512-12.622 28.401z" />
<glyph unicode="&#xe90b;" glyph-name="mail" d="M512 960c-281.6 0-512-230.4-512-512s230.4-512 512-512c281.6 0 512 230.4 512 512s-230.4 512-512 512zM302.933 627.2h422.4c0 0 0 0 0 0l-213.333-209.067-209.067 209.067c0 0 0 0 0 0zM755.2 298.667c0-17.067-12.8-29.867-29.867-29.867h-422.4c-17.067 0-29.867 12.8-29.867 29.867v298.667c0 0 0 0 0 0l243.2-243.2 243.2 243.2c0 0 0 0 0 0v-298.667z" />
<glyph unicode="&#xe90c;" glyph-name="minus" horiz-adv-x="5120" d="M0 960h5120v-1024h-5120v1024z" />
<glyph unicode="&#xe90d;" glyph-name="order-now" horiz-adv-x="1825" d="M352.677 545.45c-40.218-117.559-114.465-219.65-219.65-201.088-61.873 12.375-95.903 61.873-108.278 120.653-24.749 154.683 86.622 312.459 160.87 358.864 40.218 21.656 77.341 21.656 102.091 3.094 95.903-24.749 102.091-170.151 64.967-281.523zM275.335 805.317c-37.124 6.187-120.653-58.779-170.151-176.338-49.498-120.653-30.937-241.305 24.749-253.68 52.592-12.375 126.84 61.873 167.057 182.526 43.311 133.027 21.656 241.305-21.656 247.492zM547.577 697.039c6.187 6.187 12.375 9.281 18.562 6.187 15.468-12.375 40.218-40.218 21.656-68.060-24.749-43.311-52.592-95.903-58.779-133.027-6.187-40.218 9.281-64.967 30.937-61.873 27.843 3.094 55.686 55.686 68.060 111.372 3.094 6.187 6.187 9.281 9.281 3.094 6.187-6.187 9.281-24.749 3.094-46.405-9.281-46.405-46.405-83.529-83.529-89.716-52.592-6.187-83.529 37.124-74.248 92.81 6.187 49.498 40.218 108.278 61.873 148.495-27.843-27.843-58.779-40.218-80.435-43.311-18.562-55.686-68.060-170.151-71.154-238.211 0-6.187-3.094-12.375-12.375-6.187-24.749 18.562-30.937 52.592-18.562 92.81 12.375 34.030 46.405 111.372 68.060 154.683-46.405 18.562 3.094 114.465 27.843 120.653 21.656 6.187 24.749-37.124 15.468-86.622 30.937 3.094 52.592 18.562 74.248 43.311zM844.568 486.671c30.937 6.187 58.779 61.873 77.341 117.559 3.094 6.187 6.187 9.281 12.375 3.094 3.094-6.187 9.281-24.749 3.094-46.405-12.375-43.311-49.498-89.716-89.716-95.903s-61.873 12.375-68.060 46.405c-18.562-34.030-46.405-64.967-80.435-71.154-68.060-12.375-95.903 77.341-52.592 176.338 43.311 92.81 92.81 136.121 129.934 142.308 30.937 6.187 49.498-15.468 52.592-40.218 24.749 80.435 61.873 188.713 83.529 232.024 6.187 12.375 12.375 12.375 18.562 3.094 15.468-21.656 18.562-52.592-3.094-114.465-24.749-68.060-71.154-201.088-92.81-284.616-21.656-43.311-15.468-71.154 9.281-68.060zM692.979 598.042c-27.843-68.060-24.749-133.027 3.094-129.934s61.873 55.686 83.529 126.84c27.843 86.622 30.937 136.121 9.281 133.027-21.656-6.187-64.967-58.779-95.903-129.934zM1305.523 551.637c-55.686-6.187-86.622 37.124-77.341 98.997 6.187 52.592 40.218 114.465 64.967 154.683-27.843-24.749-58.779-40.218-80.435-43.311-37.124-136.121-98.997-241.305-185.619-259.867-92.81-18.562-139.215 64.967-108.278 167.057 30.937 98.997 95.903 151.589 136.121 136.121 18.562-6.187 34.030-15.468 49.498-27.843 15.468-15.468 15.468-58.779-6.187-102.091-24.749-49.498-71.154-77.341-129.934-46.405-12.375-71.154 15.468-114.465 52.592-108.278 80.435 9.281 139.215 139.215 163.964 238.211-61.873 15.468-9.281 123.746 21.656 129.934 21.656 6.187 21.656-40.218 12.375-89.716 24.749 9.281 46.405 24.749 74.248 49.498 6.187 6.187 12.375 12.375 18.562 6.187 18.562-12.375 40.218-43.311 24.749-71.154-27.843-43.311-55.686-98.997-61.873-142.308s9.281-68.060 30.937-64.967c30.937 3.094 58.779 58.779 71.154 117.559 3.094 6.187 6.187 9.281 9.281 3.094 6.187-6.187 9.281-24.749 6.187-46.405-9.281-52.592-46.405-92.81-86.622-98.997zM1048.749 700.133c18.562 34.030 24.749 74.248 15.468 80.435-18.562 12.375-68.060-46.405-89.716-117.559 0-3.094-3.094-9.281-3.094-12.375 40.218-18.562 61.873 15.468 77.341 49.498zM894.066-57.813c0-6.187-6.187-9.281-12.375-6.187-15.468 12.375-24.749 40.218-18.562 80.435 18.562 105.184 80.435 293.897 120.653 399.082 3.094 12.375 9.281 12.375 18.562 9.281 30.937-15.468 40.218-34.030 40.218-86.622 0-71.154 9.281-163.964 21.656-266.054 27.843 120.653 86.622 287.71 123.746 380.52 3.094 9.281 12.375 9.281 15.468 0 15.468-18.562 18.562-49.498-3.094-108.278-30.937-77.341-89.716-269.148-117.559-371.239 3.094-3.094 0-6.187-9.281-3.094-24.749 6.187-37.124 24.749-49.498 68.060s-24.749 142.308-30.937 247.492c-37.124-102.091-86.622-250.586-98.997-343.396zM1754.103 229.897c-34.030-89.716-77.341-154.683-123.746-160.87-30.937-6.187-52.592 18.562-55.686 49.498-18.562-34.030-43.311-68.060-77.341-71.154-43.311-3.094-61.873 40.218-52.592 95.903 3.094 21.656 9.281 43.311 15.468 68.060-18.562-15.468-40.218-21.656-61.873-24.749-6.187-61.873-37.124-142.308-86.622-170.151-24.749-12.375-58.779-18.562-95.903 15.468-40.218 37.124-40.218 102.091-18.562 163.964 18.562 55.686 55.686 102.091 98.997 114.465 21.656 6.187 34.030 3.094 52.592-15.468s43.311-18.562 49.498-74.248c0-3.094 0-9.281 0-15.468 40.218 9.281 74.248 49.498 92.81 92.81 6.187 12.375 12.375 30.937 18.562 43.311 3.094 9.281 12.375 9.281 18.562 3.094 21.656-21.656 21.656-52.592 3.094-98.997s-30.937-83.529-37.124-120.653c-9.281-37.124-3.094-61.873 12.375-58.779 27.843 6.187 46.405 58.779 74.248 126.84 34.030 83.529 46.405 136.121 61.873 170.151 6.187 9.281 9.281 12.375 18.562 6.187 12.375-9.281 24.749-40.218 12.375-80.435-9.281-34.030-34.030-95.903-46.405-136.121-12.375-43.311-6.187-71.154 15.468-64.967 27.843 6.187 61.873 61.873 86.622 136.121-6.187 111.372 34.030 167.057 46.405 173.245 9.281 3.094 15.468-3.094 15.468-24.749 3.094-24.749-3.094-58.779-37.124-142.308zM1290.054 254.647c-18.562-18.562-34.030-49.498-43.311-77.341-21.656-58.779-18.562-126.84 3.094-139.215s61.873 21.656 86.622 92.81c6.187 24.749 12.375 46.405 15.468 64.967-27.843 6.187-55.686 30.937-61.873 58.779zM1345.74 267.021c-6.187 21.656-21.656 15.468-21.656-6.187 0-18.562 9.281-37.124 24.749-46.405 3.094 21.656 0 40.218-3.094 52.592z" />
<glyph unicode="&#xe90e;" glyph-name="play" d="M514.626-64c-283.569 0-514.626 225.805-514.626 509.374s231.056 514.626 514.626 514.626c283.569 0 514.626-231.056 514.626-514.626-5.251-283.569-231.056-509.374-514.626-509.374zM514.626 896.985c-246.81 0-446.359-199.549-446.359-446.359s199.549-446.359 446.359-446.359 446.359 199.549 446.359 446.359-199.549 446.359-446.359 446.359zM393.846 251.077v393.846l341.333-199.549-341.333-194.297zM456.862 529.395v-168.041l147.036 84.021-147.036 84.021z" />
<glyph unicode="&#xe90f;" glyph-name="plug" d="M0 550.4h1024v-204.8h-1024v204.8zM409.6 960h204.8v-1024h-204.8v1024z" />
<glyph unicode="&#xe910;" d="M1024 448c0-282.77-229.23-512-512-512s-512 229.23-512 512c0 282.77 229.23 512 512 512s512-229.23 512-512z" />
<glyph unicode="&#xe911;" d="M567.351 268.108l-179.892 179.892 179.892 179.892 19.373-19.373-160.519-160.519 160.519-160.519z" />
<glyph unicode="&#xe912;" d="M512-5.881c-249.081 0-453.881 204.8-453.881 453.881s204.8 453.881 453.881 453.881 453.881-204.8 453.881-453.881-204.8-453.881-453.881-453.881zM512 874.205c-235.243 0-426.205-190.962-426.205-426.205s190.962-426.205 426.205-426.205c235.243 0 426.205 190.962 426.205 426.205s-190.962 426.205-426.205 426.205z" />
<glyph unicode="&#xe913;" d="M1024 448c0-282.77-229.23-512-512-512s-512 229.23-512 512c0 282.77 229.23 512 512 512s512-229.23 512-512z" />
<glyph unicode="&#xe914;" d="M456.649 627.892l179.892-179.892-179.892-179.892-19.373 19.373 160.519 160.519-160.519 160.519z" />
<glyph unicode="&#xe915;" d="M512 901.881c249.081 0 453.881-204.8 453.881-453.881s-204.8-453.881-453.881-453.881-453.881 204.8-453.881 453.881 204.8 453.881 453.881 453.881zM512 21.795c235.243 0 426.205 190.962 426.205 426.205s-190.962 426.205-426.205 426.205c-235.243 0-426.205-190.962-426.205-426.205s190.962-426.205 426.205-426.205z" />
<glyph unicode="&#xe916;" glyph-name="twitter" d="M1024 448c0-281.6-230.4-512-512-512s-512 230.4-512 512 230.4 512 512 512c281.6 0 512-230.4 512-512zM819.2 593.067c-21.333-8.533-42.667-17.067-64-17.067 25.6 12.8 42.667 38.4 51.2 64-21.333-12.8-46.933-21.333-72.533-29.867-21.333 21.333-51.2 34.133-85.333 34.133-64 0-115.2-51.2-115.2-115.2 0-8.533 0-17.067 4.267-25.6-98.133 8.533-183.467 55.467-238.933 123.733-8.533-17.067-17.067-38.4-17.067-59.733 0-38.4 21.333-76.8 51.2-93.867-17.067 0-38.4 4.267-51.2 12.8 0 0 0 0 0 0 0-55.467 38.4-102.4 93.867-110.933-8.533-4.267-21.333-4.267-29.867-4.267s-12.8 0-21.333 0c12.8-46.933 55.467-76.8 106.667-81.067-38.4-29.867-89.6-46.933-140.8-46.933-8.533 0-17.067 0-25.6 0 51.2-34.133 110.933-51.2 174.933-51.2 209.067 0 324.267 174.933 324.267 324.267 0 4.267 0 8.533 0 12.8 21.333 21.333 38.4 42.667 55.467 64z" />
<glyph unicode="&#xe917;" glyph-name="list-view" horiz-adv-x="1222" d="M238.933 686.933h-204.8c-20.48 0-34.133 20.48-34.133 34.133v204.8c0 20.48 13.653 34.133 34.133 34.133h204.8c13.653 0 34.133-13.653 34.133-34.133v-204.8c0-13.653-20.48-34.133-34.133-34.133zM68.267 755.2h136.533v136.533h-136.533v-136.533zM238.933 311.467h-204.8c-20.48 0-34.133 13.653-34.133 34.133v204.8c0 20.48 13.653 34.133 34.133 34.133h204.8c13.653 0 34.133-20.48 34.133-34.133v-204.8c0-20.48-20.48-34.133-34.133-34.133zM68.267 379.733h136.533v136.533h-136.533v-136.533zM395.947 960h826.027v-68.267h-826.027v68.267zM395.947 755.2h826.027v-68.267h-826.027v68.267zM395.947 584.533h826.027v-68.267h-826.027v68.267zM395.947 379.733h826.027v-68.267h-826.027v68.267zM395.947 202.24h826.027v-68.267h-826.027v68.267zM395.947 4.267h826.027v-68.267h-826.027v68.267zM238.933-64h-204.8c-20.48 0-34.133 13.653-34.133 34.133v204.8c0 20.48 13.653 34.133 34.133 34.133h204.8c20.48 0 34.133-13.653 34.133-34.133v-204.8c0-20.48-20.48-34.133-34.133-34.133zM68.267 4.267h136.533v136.533h-136.533v-136.533z" />
<glyph unicode="&#xe918;" glyph-name="map-view" horiz-adv-x="998" d="M263.918-64c-5.278 0-10.557 0-15.835 5.278l-237.526 211.134c-5.278 5.278-10.557 15.835-10.557 21.113v760.082c0 10.557 5.278 21.113 15.835 26.392 10.557 0 21.113 0 26.392-5.278l237.526-211.134c5.278-5.278 10.557-10.557 10.557-21.113v-760.082c0-10.557-5.278-21.113-15.835-26.392-5.278 5.278-10.557 0-10.557 0zM52.784 189.361l184.742-163.629v686.186l-184.742 163.629v-686.186zM733.691-64c-5.278 0-10.557 0-15.835 5.278l-237.526 211.134c-5.278 5.278-10.557 15.835-10.557 21.113v760.082c0 10.557 5.278 21.113 15.835 26.392 10.557 0 21.113 0 31.67-5.278l237.526-211.134c5.278-5.278 10.557-10.557 10.557-21.113v-760.082c0-10.557-5.278-21.113-15.835-26.392-10.557 5.278-10.557 0-15.835 0zM522.557 189.361l184.742-163.629v686.186l-184.742 163.629v-686.186zM263.918-64c-5.278 0-5.278 0-10.557 0-10.557 5.278-15.835 15.835-15.835 26.392v760.082c0 5.278 5.278 15.835 10.557 21.113l237.526 211.134c5.278 5.278 15.835 5.278 21.113 5.278 10.557-5.278 15.835-15.835 15.835-26.392v-760.082c0-5.278-5.278-15.835-10.557-21.113l-237.526-211.134c0 0-5.278-5.278-10.557-5.278zM290.309 711.918v-686.186l184.742 163.629v686.186l-184.742-163.629zM733.691-64c-5.278 0-5.278 0-10.557 0-10.557 5.278-15.835 15.835-15.835 26.392v760.082c0 5.278 5.278 15.835 10.557 21.113l237.526 211.134c5.278 5.278 15.835 5.278 26.392 5.278 10.557-5.278 15.835-15.835 15.835-26.392v-760.082c0-5.278-5.278-15.835-10.557-21.113l-237.526-211.134c-5.278 0-10.557-5.278-15.835-5.278zM760.082 711.918v-686.186l184.742 163.629v686.186l-184.742-163.629z" />
<glyph unicode="&#xe919;" glyph-name="x" d="M2.48 920.12l38.929 38.929 980.999-980.999-38.929-38.929-980.999 980.999zM2.48-21.95l980.999 980.999 38.929-38.929-980.999-980.999-38.929 38.929z" />
<glyph unicode="&#xe91a;" glyph-name="beverages" d="M705.911 668.194h-183.671v204.629h-20.48v-204.629h-183.671c-5.655 0-10.24-4.585-10.24-10.24v-54.374c0-5.655 4.585-10.24 10.24-10.24h9.387l53.794-427.93c3.032-23.306 22.742-41.127 46.622-41.165h0.004l166.878 0.512c23.748 0.141 43.327 17.809 46.462 40.715l55.221 427.833h9.318c5.655 0 10.24 4.585 10.24 10.24v54.409c0 0 0 0.001 0 0.001 0 5.607-4.507 10.162-10.096 10.239zM328.329 647.714h367.343v-33.894h-367.343v33.894zM621.227 168.38c-1.758-13.076-12.808-23.064-26.206-23.142l-166.886-0.512c-13.486 0.017-24.616 10.083-26.303 23.112l-53.672 425.503h327.68z" />
<glyph unicode="&#xe91b;" glyph-name="breakfast" d="M723.627 233.54c-1.071 22.411-5.461 43.465-12.692 63.147l124.205 49.732-7.817 18.91-123.767-51.2c-9.615 20.065-21.34 37.323-35.24 52.563l196.452 196.133-14.473 14.473-196.301-196.301c-15.035 13.714-32.248 25.415-50.981 34.465l77.434 190.406-18.91 7.851-78.711-189.85c-18.252 6.794-39.351 11.208-61.33 12.269l-0.485 277.523h-20.48v-277.504c-23.807-1.153-46.136-6.062-66.875-14.148l-80.479 188.876-18.773-8.192 82.091-188.416c-18.645-9.362-34.698-20.476-48.979-33.5l-196.371 196.521-14.473-14.473 196.301-196.301c-13.734-15.063-25.447-32.31-34.499-51.081l-124.289 49.921-7.817-18.91 123.733-51.2c-6.776-18.233-11.178-39.309-12.235-61.263l-169.764-0.484v-20.48h765.133v20.48h-169.609zM510.771 416.222c102.815-0.186 186.755-80.743 192.354-182.184l-384.866-0.497c5.639 101.936 89.591 182.481 192.393 182.647z" />
<glyph unicode="&#xe91c;" glyph-name="catering-quote" d="M327.68 458.24h184.32v-20.48h-184.32v20.48zM327.68 359.083h184.32v-20.48h-184.32v20.48zM327.68 259.925h184.32v-20.48h-184.32v20.48zM327.68 557.397h368.64v-20.48h-368.64v20.48zM327.68 656.555h368.64v-20.48h-368.64v20.48zM666.59 302.524c-0.027-15.374-6.922-29.133-17.78-38.375-6.040-4.987-13.152-8.77-20.933-10.953l-0.404-17.607c0.001-0.041 0.001-0.089 0.001-0.137 0-5.995-4.86-10.854-10.854-10.854-0.048 0-0.097 0-0.145 0.001-0.16-0.010-0.356-0.015-0.554-0.015-5.769 0-10.445 4.676-10.445 10.445 0 0.197 0.005 0.394 0.016 0.588l-0.001 17.825c-14.052 2.956-25.656 11.63-32.472 23.419-1.010 1.804-1.532 3.679-1.532 5.677 0 4.103 2.2 7.692 5.485 9.651 1.598 0.851 3.433 1.333 5.381 1.333 4.111 0 7.72-2.15 9.763-5.387 3.959-7.349 11.065-12.505 19.448-13.685 0.647-0.241 1.241-0.372 1.865-0.372 0.125 0 0.249 0.005 0.371 0.016l2.715-0.001c15.586 0.212 28.142 12.887 28.16 28.5-0.315 8.6-4.379 16.189-10.596 21.225l-42.993 35.438c-10.939 9.001-17.86 22.539-17.86 37.695 0 14.843 6.639 28.135 17.11 37.069 5.677 5.010 12.603 8.602 20.253 10.243l0.295 17.905c-0.010 0.168-0.015 0.364-0.015 0.561 0 5.769 4.676 10.445 10.445 10.445 0.197 0 0.394-0.005 0.588-0.016 0.014 0.002 0.062 0.002 0.11 0.002 5.995 0 10.854-4.86 10.854-10.854 0-0.048 0-0.097-0.001-0.145v-17.844c13.479-2.981 24.582-11.38 31.11-22.741 0.944-1.777 1.427-3.612 1.427-5.56 0-4.111-2.15-7.72-5.387-9.763-1.612-0.911-3.483-1.432-5.476-1.432-4.096 0-7.679 2.2-9.63 5.483-3.638 7.091-10.425 12.058-18.444 13.078-0.68 0.244-1.33 0.378-2.013 0.378-0.175 0-0.347-0.009-0.517-0.026l-2.402 0.002c-0.070 0.001-0.152 0.001-0.234 0.001-6.493 0-12.408-2.477-16.851-6.538-5.677-4.498-9.299-11.417-9.299-19.182 0-0.45 0.012-0.898 0.036-1.342-0.015-0.224-0.022-0.559-0.022-0.897 0-7.859 3.762-14.84 9.584-19.239l43.308-35.406c11.336-9.057 18.535-22.881 18.535-38.386 0-0.077 0-0.154-0.001-0.231zM766.191 83.285h-508.382c-5.655 0-10.24 4.585-10.24 10.24v708.949c0 0.028 0 0.061 0 0.094 0 5.655 4.585 10.24 10.24 10.24 2.826 0 5.384-1.145 7.237-2.995l56.32-56.32 56.286 56.32c1.884 1.78 4.432 2.874 7.236 2.874s5.352-1.094 7.241-2.879l56.315-56.315 56.32 56.32c1.884 1.78 4.432 2.874 7.236 2.874s5.352-1.094 7.241-2.879l56.315-56.315 56.32 56.32c1.851 1.854 4.41 3.001 7.236 3.004v0c2.827-0.003 5.385-1.15 7.236-3.004l56.32-56.32 56.286 56.32c1.853 1.85 4.411 2.995 7.236 2.995 5.652 0 10.235-4.579 10.24-10.231v-709.052c0-5.655-4.585-10.24-10.24-10.24 0 0 0 0 0 0zM268.015 103.765h487.936v673.963l-45.978-46.080c-1.884-1.78-4.432-2.874-7.236-2.874s-5.352 1.094-7.241 2.879l-56.315 56.315-56.32-56.32c-1.884-1.78-4.432-2.874-7.236-2.874s-5.352 1.094-7.241 2.879l-56.383 56.315-56.32-56.32c-1.884-1.78-4.432-2.874-7.236-2.874s-5.352 1.094-7.241 2.879l-56.315 56.315-56.286-56.32c-1.884-1.78-4.432-2.874-7.236-2.874s-5.352 1.094-7.241 2.879l-46.075 46.075v-673.963z" />
<glyph unicode="&#xe91d;" glyph-name="donation-request" d="M194.307 509.776c0.708-9.739-6.613-18.209-16.352-18.917s-18.209 6.613-18.917 16.352c-0.708 9.739 6.613 18.209 16.352 18.917s18.209-6.613 18.917-16.352zM918.46 506.266l-173.227 200.363c-1.712 1.977-4.226 3.221-7.031 3.221-2.329 0-4.458-0.858-6.088-2.274l-63.92-55.286c-1.977-1.712-3.221-4.226-3.221-7.031 0-2.329 0.858-4.458 2.274-6.088l5.179-5.825-139.947 10.24c-0.204 0.015-0.442 0.024-0.681 0.024-1.1 0-2.156-0.184-3.141-0.522l-107.077-36.81-69.222 27.511 4.403 5.359c1.407 1.619 2.265 3.747 2.265 6.077 0 2.804-1.243 5.318-3.209 7.021l-63.943 55.169c-1.619 1.407-3.747 2.265-6.077 2.265-2.804 0-5.318-1.243-7.021-3.209l-173.237-200.204c-1.407-1.619-2.265-3.747-2.265-6.077 0-2.804 1.243-5.318 3.209-7.021l63.978-55.408c1.616-1.4 3.74-2.253 6.063-2.253 0.005 0 0.009 0 0.014 0h0.682c2.544 0.187 4.779 1.373 6.339 3.163l7.587 8.886 44.681-70.383c0.255-0.355 0.513-0.667 0.789-0.96-4.417-6.71-7.043-14.942-7.043-23.787 0-24.149 19.576-43.725 43.725-43.725 0.063 0 0.125 0 0.188 0h0.468c-0.526-1.945-0.948-4.267-1.18-6.645-0.162-1.515-0.246-3.062-0.246-4.629 0-23.64 19.164-42.803 42.803-42.803 2.274 0 4.507 0.177 6.686 0.519-0.242-0.85-0.617-1.601-0.651-2.455-0.098-1.099-0.155-2.378-0.155-3.669 0-24.092 19.53-43.622 43.622-43.622 6.513 0 12.692 1.427 18.243 3.986 0.005-10.418 3.83-19.78 10.021-27.071 8.051-9.316 19.961-15.215 33.248-15.215 10.959 0 20.98 4.013 28.675 10.649l19.775 17.019c0.444 0.375 0.751 0.853 1.161 1.229v0c0.586 0.115 1.269 0.188 1.965 0.205 12.575-1.979 28.789-8.328 54.047 12.834 6.498 5.914 11.28 13.607 13.581 22.309 6.279-2.878 13.569-4.895 21.294-5.238 0.831-0.040 1.674-0.060 2.522-0.060 23.468 0 43.307 15.541 49.786 36.893 6.977-3.209 15.122-5.307 23.756-5.307 23.514 0 43.394 15.561 49.904 36.947 6.961-3.161 15.076-5.231 23.673-5.231 28.956 0 52.429 23.473 52.429 52.429 0 6.713-1.262 13.131-3.561 19.030-0.328 0.722-0.926 1.648-1.659 2.449l69.161 84.473 7.68-8.909c1.57-1.801 3.805-2.987 6.318-3.173l0.713-0.002c0.004 0 0.008 0 0.013 0 2.323 0 4.446 0.853 6.074 2.263l63.92 55.286c1.944 1.71 3.165 4.204 3.165 6.982 0 2.336-0.863 4.47-2.287 6.102zM175.582 458.035l-49.903 43.11 161.041 186.266 49.903-43.11zM254.293 336.282c-3.757 4.365-6.044 10.088-6.044 16.345 0 7.585 3.361 14.384 8.675 18.991l27.782 23.92c4.368 3.77 10.099 6.066 16.367 6.066 13.869 0 25.113-11.243 25.113-25.113 0-7.601-3.377-14.414-8.713-19.019l-27.783-23.921c-4.398-3.59-10.074-5.765-16.258-5.765-7.581 0-14.398 3.269-19.119 8.474zM332.8 279.552c-4.399-3.606-10.083-5.791-16.277-5.791-7.556 0-14.353 3.252-19.066 8.433-3.775 4.381-6.062 10.1-6.062 16.353 0 7.595 3.375 14.403 8.708 19.003l54.885 47.302c4.377 3.824 10.142 6.155 16.452 6.155 13.843 0 25.065-11.222 25.065-25.065 0-7.533-3.323-14.29-8.583-18.885l-51.605-44.399-0.205-0.239zM346.010 232.96c-3.772 4.356-6.071 10.079-6.071 16.338 0 7.471 3.275 14.178 8.467 18.762l55.255 47.537c4.363 3.766 10.089 6.059 16.35 6.059 13.856 0 25.089-11.233 25.089-25.089 0-7.595-3.375-14.401-8.706-19.002l-55.055-47.302c-4.394-3.58-10.062-5.748-16.236-5.748-7.556 0-14.354 3.248-19.074 8.424zM442.539 192c-4.401-3.598-10.082-5.778-16.274-5.778-7.555 0-14.351 3.246-19.070 8.42-3.792 4.381-6.090 10.108-6.090 16.372 0 7.588 3.373 14.388 8.702 18.983l19.864 17.094c4.448 4.086 10.406 6.591 16.948 6.591 13.856 0 25.088-11.232 25.088-25.088 0-7.868-3.622-14.891-9.29-19.49zM739.499 317.952c-5.801-5.687-13.754-9.197-22.527-9.197-0.625 0-1.245 0.018-1.861 0.053-8.943 0.422-16.969 4.387-22.698 10.524-1.787 1.873-4.276 3.025-7.035 3.025-5.354 0-9.694-4.34-9.694-9.694 0-0.217 0.007-0.432 0.021-0.645 0.044-0.62 0.070-1.378 0.070-2.141 0-9.242-3.818-17.592-9.962-23.559-5.804-5.695-13.753-9.205-22.522-9.205-0.629 0-1.254 0.018-1.875 0.054-8.931 0.424-16.946 4.389-22.663 10.523-1.787 1.873-4.277 3.025-7.035 3.025-5.354 0-9.694-4.34-9.694-9.694 0-0.217 0.007-0.432 0.021-0.645 0.046-0.634 0.074-1.408 0.074-2.189 0-18.078-14.655-32.734-32.734-32.734-0.519 0-1.035 0.012-1.547 0.036-8.958 0.441-16.982 4.416-22.71 10.559-1.787 1.873-4.277 3.025-7.035 3.025-5.354 0-9.694-4.34-9.694-9.694 0-0.217 0.007-0.432 0.021-0.645 0.044-0.62 0.070-1.378 0.070-2.141 0-9.242-3.818-17.592-9.962-23.559-3.729-3.421-12.364-13.081-31.684-10.726 1.918 4.735 3.032 10.226 3.032 15.978 0 20.813-14.575 38.221-34.075 42.574 5.355 7.286 8.762 16.506 8.762 26.521 0 23.866-19.347 43.213-43.213 43.213-2.292 0-4.541-0.178-6.737-0.522 0.244 0.851 0.619 1.636 0.653 2.455 0.084 1.019 0.132 2.205 0.132 3.402 0 24.167-19.592 43.759-43.759 43.759-10.183 0-19.553-3.478-26.988-9.311-1.993 22.52-20.738 39.956-43.554 39.956-10.945 0-20.952-4.012-28.633-10.645l-22.643-19.443-45.67 71.885-0.239 0.239 135.27 156.501 68.574-27.307-46.285-85.538c-3.856-6.99-6.125-15.322-6.125-24.183 0-28.059 22.746-50.805 50.805-50.805 19.197 0 35.908 10.647 44.548 26.359l34.266 63.376 58.505 20.105c9.66-1.673 22.289-9.762 30.242-17.34l163.567-155.819c4.49-4.003 7.99-9.018 10.154-14.693 1.321-3.577 2.035-7.412 2.035-11.414 0-9.301-3.859-17.7-10.063-23.685zM752.572 379.221c-0.717 0.751-1.434 1.468-2.15 2.15l-163.635 155.853c-10.069 9.591-27.307 21.265-43.349 22.733-0.225 0.018-0.486 0.028-0.75 0.028-1.123 0-2.203-0.185-3.211-0.527l-63.998-21.961c-2.266-0.797-4.091-2.368-5.198-4.388l-35.933-66.37c-5.737-9.935-16.307-16.513-28.412-16.513-5.454 0-10.596 1.335-15.117 3.697-9.875 5.437-16.577 15.956-16.577 28.041 0 5.578 1.428 10.823 3.939 15.389l49.444 91.312 105.335 36.181 156.535-11.264 130.901-151.415zM848.521 458.035l-161.143 186.266 49.903 43.11 161.041-186.266zM848.677 526.085c9.739-0.708 17.060-9.178 16.352-18.917s-9.178-17.060-18.917-16.352c-9.739 0.708-17.060 9.178-16.352 18.917s9.178 17.060 18.917 16.352z" />
<glyph unicode="&#xe91e;" glyph-name="feedback" d="M247.569 812.715v-729.429h528.862v729.429h-528.862zM755.951 103.765h-487.902v688.469h487.902v-688.469zM327.68 458.24h368.64v-20.48h-368.64v20.48zM327.68 359.083h368.64v-20.48h-368.64v20.48zM327.68 259.925h184.32v-20.48h-184.32v20.48zM327.68 557.397h368.64v-20.48h-368.64v20.48zM327.68 656.555h368.64v-20.48h-368.64v20.48z" />
<glyph unicode="&#xe91f;" glyph-name="kids" d="M512 703.625c0 0 0 0 0 0-141.178 0-255.625-114.447-255.625-255.625s114.447-255.625 255.625-255.625c141.178 0 255.625 114.447 255.625 255.625-0.213 141.092-114.533 255.411-255.604 255.625zM512 212.855c-129.867 0-235.145 105.278-235.145 235.145s105.278 235.145 235.145 235.145c129.867 0 235.145-105.278 235.145-235.145-0.213-129.781-105.364-234.931-235.124-235.145zM512 315.29c-0.105 0-0.228 0-0.352 0-36.535 0-69.599 14.863-93.474 38.872l-14.479-14.466c27.722-27.722 66.020-44.869 108.322-44.869s80.6 17.146 108.322 44.869l-14.473 14.473c-23.882-24.015-56.945-38.878-93.481-38.878-0.136 0-0.271 0-0.407 0.001zM428.578 448h20.48c-0.635 20.579-17.47 37.020-38.144 37.020s-37.509-16.441-38.143-36.962l20.479-0.058c0.427 9.425 8.172 16.904 17.664 16.904s17.237-7.479 17.663-16.866zM613.069 486.161c-21.053-0.039-38.108-17.105-38.127-38.159l20.48-0.002c0.427 9.425 8.172 16.904 17.664 16.904s17.237-7.479 17.663-16.866l20.481-0.038c-0.019 21.068-17.093 38.142-38.159 38.161z" />
<glyph unicode="&#xe920;" glyph-name="our-team" d="M710.315 489.813c-19.501 25.242-31.268 57.324-31.3 92.153v110.36h-42.496v142.097c0 68.807-55.779 124.587-124.587 124.587s-124.587-55.779-124.587-124.587v-142.097h-42.359v-110.49c-0.035-34.836-11.802-66.917-31.562-92.512l-93.947-122.118v-295.322h585.011v295.424zM407.962 834.56c0 57.497 46.61 104.107 104.107 104.107s104.107-46.61 104.107-104.107v-142.234h-208.213v142.097zM784.009 92.467h-544.017v267.878l89.941 116.975c22.122 28.627 35.487 65.003 35.567 104.498v90.028h293.035v-90.010c0.077-39.513 13.442-75.89 35.863-104.915l89.645-116.576v-267.878zM409.293 637.44c0-6.391-5.181-11.571-11.571-11.571s-11.571 5.181-11.571 11.571c0 6.391 5.181 11.571 11.571 11.571s11.571-5.181 11.571-11.571zM635.426 637.44c0-6.391-5.181-11.571-11.571-11.571s-11.571 5.181-11.571 11.571c0 6.391 5.181 11.571 11.571 11.571s11.571-5.181 11.571-11.571z" />
<glyph unicode="&#xe921;" glyph-name="phone-assistance" d="M512 457.318c-59.702 0-108.1-48.398-108.1-108.1s48.398-108.1 108.1-108.1c59.702 0 108.1 48.398 108.1 108.1-0.058 59.679-48.422 108.042-108.095 108.1zM512 261.632c-48.391 0-87.62 39.229-87.62 87.62s39.229 87.62 87.62 87.62c48.391 0 87.62-39.229 87.62-87.62-0.058-48.368-39.252-87.562-87.615-87.62zM747.281 414.379c-8.493 27.063-25.693 49.329-48.257 64.065l-63.701 41.237v67.038c0 0.005 0 0.010 0 0.016 0 20.567-16.673 37.239-37.239 37.239-1.31 0-2.605-0.068-3.88-0.2-18.816-2.537-33.294-18.626-33.294-38.097 0-0.174 0.001-0.348 0.003-0.521v-14.89h-97.724v14.916c0.002 0.147 0.003 0.321 0.003 0.495 0 19.471-14.478 35.56-33.256 38.088-1.303 0.138-2.586 0.205-3.884 0.205-20.578 0-37.261-16.675-37.274-37.25v-67.039l-63.351-40.96c-23.044-15.052-40.25-37.381-48.483-63.678l-48.66-159.554c-2.169-6.894-3.418-14.821-3.418-23.040 0-43.819 35.514-79.343 79.329-79.36h415.609c43.802 0.036 79.297 35.553 79.297 79.36 0 8.219-1.249 16.146-3.569 23.602zM767.147 197.325c-10.735-14.556-27.818-23.894-47.082-23.894-0.080 0-0.159 0-0.239 0h-415.629c-32.518 0.001-58.879 26.362-58.879 58.88 0 6.126 0.935 12.033 2.671 17.586l48.323 158.508c6.995 22.397 21.21 40.827 39.871 53.020l68.298 44.090c2.832 1.853 4.676 5.009 4.676 8.597 0 0.002 0 0.003 0 0.005v72.601c0.009 4.922 2.135 9.346 5.516 12.412 2.952 2.701 6.882 4.348 11.196 4.348 0.017 0 0.034 0 0.051 0h1.772c8.566-1.379 15.031-8.719 15.031-17.569 0-0.231-0.004-0.462-0.013-0.691l0.001-25.123c0-5.655 4.585-10.24 10.24-10.24h118.101c5.655 0 10.24 4.585 10.24 10.24v25.156c-0.008 0.198-0.012 0.43-0.012 0.663 0 8.838 6.447 16.17 14.894 17.55 0.635 0.074 1.252 0.108 1.878 0.108 9.256 0 16.759-7.503 16.759-16.759 0-0.009 0-0.018 0-0.027v-72.566c0-0.001 0-0.003 0-0.005 0-3.587 1.845-6.744 4.637-8.573l67.998-43.988c19.033-12.435 33.247-30.876 40.057-52.592l48.622-159.58c1.659-5.167 2.616-11.11 2.616-17.277 0-13.158-4.354-25.3-11.7-35.062zM772.574 703.010c-63.966 26.556-151.62 40.004-260.574 40.004s-196.608-13.449-260.54-40.004c-52.59-22.579-88.752-73.923-88.752-133.713 0-0.452 0.002-0.903 0.006-1.354v-52.633c0.010-31.568 25.604-57.155 57.173-57.155 11.517 0 22.238 3.405 31.212 9.264l101.327 65.436c2.832 1.853 4.676 5.009 4.676 8.597 0 0.002 0 0.003 0 0.005v45.261c0.039 37.989 30.824 68.774 68.809 68.813h172.138c37.989-0.039 68.774-30.824 68.813-68.809v-45.265c0-0.001 0-0.003 0-0.005 0-3.587 1.845-6.744 4.637-8.573l101.586-65.594c8.755-5.724 19.476-9.129 30.993-9.129 31.57 0 57.163 25.587 57.173 57.154v52.737c0.004 0.38 0.006 0.829 0.006 1.279 0 59.764-36.131 111.089-87.742 133.323zM840.841 515.277c-0.062-20.218-16.466-36.585-36.693-36.585-7.395 0-14.279 2.188-20.041 5.951l-96.73 62.344v39.731c-0.058 49.292-40.001 89.235-89.287 89.293h-172.174c-49.292-0.058-89.235-40.001-89.293-89.287v-39.737l-96.87-62.498c-5.621-3.677-12.505-5.865-19.9-5.865-20.227 0-36.631 16.366-36.693 36.579v52.844c-0.003 0.343-0.005 0.748-0.005 1.154 0 51.376 31.072 95.495 75.449 114.589 62.25 25.808 147.242 38.744 253.397 38.744s191.147-12.937 252.587-38.434c45.132-19.429 76.157-63.519 76.157-114.857 0-0.421-0.002-0.841-0.006-1.261v-52.638z" />
<glyph unicode="&#xe922;" glyph-name="salads" d="M861.764 483.84c-5.837 6.124-14.057 9.933-23.167 9.933-0.039 0-0.079 0-0.118 0h-22.693c25.088 32.29 21.845 67.345 9.796 89.566s-34.133 34.441-54.135 29.218c-12.425-3.413-12.971-1.604-17.067 11.127-4.881 15.428-12.834 41.301-59.938 39.526-10.92-0.025-21.163-2.895-30.037-7.908-0.779 10.523-4.323 19.884-9.729 27.885-8.397 12.005-21.709 19.583-39.424 22.348-21.777 3.413-22.357 10.24-23.45 23.893-1.843 22.528-7.578 43.281-57.037 49.801-44.954 5.973-56.32-20.617-63.113-36.659-2.458-5.837-5.018-11.844-7.748-13.039-4.983-2.15-13.039-0.956-22.323 0.444-16.35 2.458-38.741 5.803-63.113-7.27-13.38-7.168-27.75-24.201-35.396-34.133l-0.58 0.41c-22.938 16.862-48.947 35.874-81.374 16.623-22.187-13.21-24.61-32.324-26.522-47.514-0.425-7.319-2.129-14.134-4.892-20.376-2.344-4.336-9.136-8.057-16.339-11.982-14.473-7.885-36.352-19.797-31.471-51.644 4.54-29.662 18.603-39.561 29.901-47.514 9.796-6.827 17.818-12.629 20.48-32.87h-46.763c-0.033 0-0.073 0-0.112 0-9.11 0-17.33-3.809-23.155-9.92-5.607-5.865-9.051-13.815-9.051-22.57 0-0.47 0.010-0.938 0.030-1.403 9.009-213.199 139.774-335.567 358.773-335.567s349.764 122.368 358.775 335.735c0.017 0.389 0.026 0.845 0.026 1.304 0 8.754-3.443 16.703-9.049 22.568zM695.296 643.243c31.676 1.161 35.601-11.196 40.141-25.566 3.857-12.151 10.24-32.461 40.96-24.474 10.991 2.867 23.654-4.949 31.505-19.422 10.445-19.251 11.708-51.678-19.081-79.701l0.307-0.341h-79.701c11.708 6.827 25.941 19.012 41.233 40.755 1.26 1.655 2.019 3.752 2.019 6.026 0 5.523-4.478 10.001-10.001 10.001-3.485 0-6.555-1.783-8.345-4.487-20.503-29.289-37.57-37.584-46.206-39.905-6.144 30.208 11.503 56.252 11.878 56.764 0.803 1.408 1.277 3.093 1.277 4.89 0 5.523-4.478 10.001-10.001 10.001-3.031 0-5.747-1.348-7.581-3.477-1.103-1.583-26.328-38.14-12.879-80.704h-144.043c0 1.092 0 2.048-0.205 3.209 0 2.799-0.341 5.973-0.546 9.353 0 0.683 0 1.331 0 2.014-1.331 27.648-1.024 69.222 20.207 76.834 22.972 8.26 29.559 0.307 38.673-10.65 8.704-10.445 20.48-24.747 45.909-15.121 22.801 8.636 26.624 29.969 29.662 47.070 0.683 3.755 1.297 7.27 2.048 10.547v0 0.887c3.686 15.121 9.899 24.61 32.768 25.498zM387.925 705.092c18.5 9.933 34.85 7.475 50.688 5.12 11.878-1.775 23.040-3.413 33.28 0.99s14.165 14.097 18.193 23.518c6.827 16.009 12.186 28.638 42.189 24.713 37.547-4.949 38.468-16.145 39.731-31.607s2.935-36.181 40.277-42.018c12.288-1.911 20.89-6.588 26.283-14.302 11.196-15.974 6.076-42.086 4.369-50.688v0c-0.853-3.721-1.536-7.407-2.15-10.889-3.038-17.067-5.461-27.511-17.067-31.915s-15.36-0.512-23.484 9.216c-9.83 11.81-24.678 29.628-60.826 16.691-21.709-7.782-30.003-30.72-32.734-55.057-6.326 5.882-13.729 10.713-21.864 14.151-15.58 6.568-15.648 13.838-9.368 42.579l1.434 6.827c4.813 22.767-0.99 42.633-15.838 54.613s-36.454 13.653-57.276 4.062c-16.179-7.407-30.003-2.628-44.373 6.281 7.578 9.318 19.49 22.767 28.535 27.716zM223.3 542.959c-10.24 7.236-18.398 12.937-21.641 34.133-2.628 17.067 5.495 22.46 21.299 31.061 9.455 5.154 19.285 10.513 24.576 20.48 3.753 7.861 6.205 17.021 6.816 26.682 1.718 13.869 3.049 24.757 16.873 32.983 20.070 11.913 35.635 1.877 59.324-15.497 22.733-16.589 48.333-35.26 81.545-20.002 13.653 6.315 27.307 5.769 36.454-1.468s11.947-19.695 8.772-34.782l-1.434-6.588c-5.53-25.361-11.264-51.575 20.48-65.092 11.127-4.71 27.307-15.258 29.423-37.103 0-1.707 0-3.413 0.273-5.052 0.001-0.095 0.001-0.206 0.001-0.318 0-3.031-0.224-6.009-0.655-8.92l-101.643 0.329s0 0.239-0.273 0.341-4.471 4.028-31.573 26.487c4.881 14.063 13.653 45.636 2.389 67.925-1.713 3.193-5.028 5.327-8.842 5.327-5.523 0-10.001-4.478-10.001-10.001 0-1.551 0.353-3.019 0.983-4.329 5.947-11.887 2.739-31.138-1.187-44.962-34.577 30.345-42.906 75.093-42.974 75.674-0.99 4.563-4.994 7.931-9.784 7.931-5.523 0-10.001-4.478-10.001-10.001 0-0.474 0.033-0.94 0.097-1.396 4.19-19.659 11.277-37.122 20.892-52.874-17.775 6.238-32.828 13.187-46.795 21.735-0.536 0.343-2.279 0.852-4.142 0.852-5.523 0-10.001-4.478-10.001-10.001 0-3.42 1.717-6.44 4.336-8.243 1.57-0.978 37.58-23.506 73.898-27.568 4.429-4.887 9.089-9.353 14.045-13.473 12.579-10.42 21.59-17.861 28.144-23.356h-120.73c-3.243 30.891-16.725 40.55-28.945 49.084zM512 144.725c-282.761 0-333.346 197.973-338.295 316.075-0.006 0.138-0.009 0.301-0.009 0.464 0 3.252 1.307 6.198 3.424 8.344 2.123 2.23 5.116 3.617 8.433 3.617 0.023 0 0.046 0 0.068 0h652.865c0.009 0 0.020 0 0.031 0 3.317 0 6.31-1.387 8.43-3.613 2.12-2.148 3.427-5.095 3.427-8.347 0-0.163-0.003-0.326-0.010-0.487-5.017-118.010-55.602-316.051-338.363-316.051z" />
<glyph unicode="&#xe923;" glyph-name="sandwiches" d="M930.406 450.594c-8.838 10.317-21.070 17.501-34.951 19.818 2.626 72.512-13.997 129.105-50.553 168.052-46.763 49.903-111.582 55.296-137.284 55.296h-392.977c-18.739 0-83.661-3.994-131.789-55.33-36.113-38.571-52.77-93.764-49.971-163.84-28.058-4.676-48.538-27.785-53.248-61.747-4.813-34.577 8.875-74.82 44.373-84.924 4.588-1.323 9.857-2.084 15.304-2.084 0.152 0 0.303 0.001 0.455 0.002 2.066-71.377 60.366-128.458 132.027-128.58h477.674c72.836 0.096 131.884 58.989 132.232 131.756 33.758 3.447 55.876 24.643 62.123 60.688 4.164 24.166-0.614 45.67-13.414 60.894zM197.973 624.299c42.394 45.295 100.011 48.981 116.668 48.981h392.977c23.006 0 80.998-4.745 122.231-48.777 32.563-34.748 47.787-86.153 44.885-152.883l-721.476 3.891c-2.56 64.375 12.459 114.381 44.715 148.787zM832.068 451.106c-16.384-45.056-45.636-66.321-138.069-64.853-79.633 1.297-129.229 23.62-147.558 66.423zM487.868 453.052c-12.049-36.83-39.697-67.584-159.983-67.618-57.037 0-98.202 9.114-122.368 26.897-13.764 9.823-23.259 24.864-25.599 42.177zM749.534 217.907h-477.73c-61.26 0.074-110.965 49.443-111.581 110.568 4.3 1.048 8.499 2.209 12.526 3.472 14.234 3.959 26.556 7.407 36.625 1.809 6.281-3.413 7.748-8.158 10.24-17.545 3.925-14.916 9.318-35.362 47.787-44.919 25.395-6.246 40.96 8.465 53.794 20.275 11.332 10.581 21.094 19.797 37.069 17.886 13.995-1.57 19.456-9.694 27.034-20.924 10.547-15.667 23.689-35.191 62.43-35.43h1.195c60.279 0 85.709 29.321 104.311 50.756 13.653 15.838 22.050 24.678 36.864 24.269 16.282-0.546 24.542-11.23 36.727-28.604 14.029-20.036 31.573-44.988 72.055-43.179 42.837 1.843 49.357 23.552 55.091 42.667 4.164 13.892 8.090 26.999 26.761 36.591 16.828 8.636 29.218 5.188 46.353 0.41 6.359-1.998 14.406-3.941 22.617-5.409 4.69-0.735 8.103-1.145 11.516-1.418-0.252-61.528-50.188-111.309-111.752-111.309 0 0-0.001 0-0.001 0zM923.614 393.216c-6.007-34.782-29.321-49.186-69.222-42.735-8.562 1.532-15.8 3.308-22.864 5.48-17.004 4.76-35.982 9.88-60.080-2.271-26.453-13.653-32.358-33.246-37.103-48.981-5.188-17.271-8.055-26.795-36.215-28.023-29.491-1.297-40.96 15.258-54.272 34.406-11.947 17.067-25.532 36.489-52.907 37.547-24.951 1.297-39.39-15.531-53.111-31.334-17.749-20.48-37.854-43.657-88.747-43.657h-1.092c-27.853 0.171-36.011 12.288-45.466 26.351-8.602 12.8-18.364 27.307-41.847 29.935-25.361 2.765-40.96-11.674-53.453-23.313s-20.958-19.046-34.748-15.633c-26.726 6.588-29.457 17.067-32.939 30.14-2.628 9.967-5.905 22.391-20.139 30.31-17.442 9.694-35.908 4.574-52.19 0-13.244-3.686-25.737-7.168-37.547-3.789-23.893 6.827-33.075 37.137-29.559 62.225 2.97 21.845 15.94 44.954 43.247 44.954h15.531c2.447-24.474 15.245-45.543 33.891-59.021 28.402-20.851 72.434-30.887 134.796-31.057h1.024c127.010 0 164.557 33.587 180.429 88.098h15.155c18.978-56.286 75.81-85.641 169.233-87.142h9.523c90.385 0 129.911 22.46 150.596 85.333l30.72-0.171c0.206 0.004 0.449 0.006 0.693 0.006 11.78 0 22.327-5.281 29.402-13.605 9.227-10.602 12.299-25.826 9.159-44.087zM242.756 535.313c0-6.862-5.563-12.425-12.425-12.425s-12.425 5.563-12.425 12.425c0 6.862 5.563 12.425 12.425 12.425s12.425-5.563 12.425-12.425zM342.426 620.988c0-6.862-5.563-12.425-12.425-12.425s-12.425 5.563-12.425 12.425c0 6.862 5.563 12.425 12.425 12.425s12.425-5.563 12.425-12.425zM388.983 555.281c0-6.862-5.563-12.425-12.425-12.425s-12.425 5.563-12.425 12.425c0 6.862 5.563 12.425 12.425 12.425s12.425-5.563 12.425-12.425zM482.065 623.070c0-6.862-5.563-12.425-12.425-12.425s-12.425 5.563-12.425 12.425c0 6.862 5.563 12.425 12.425 12.425s12.425-5.563 12.425-12.425zM570.641 529.886c0-6.862-5.563-12.425-12.425-12.425s-12.425 5.563-12.425 12.425c0 6.862 5.563 12.425 12.425 12.425s12.425-5.563 12.425-12.425zM658.944 569.344c0-6.862-5.563-12.425-12.425-12.425s-12.425 5.563-12.425 12.425c0 6.862 5.563 12.425 12.425 12.425s12.425-5.563 12.425-12.425zM720.043 517.53c0-6.862-5.563-12.425-12.425-12.425s-12.425 5.563-12.425 12.425c0 6.862 5.563 12.425 12.425 12.425s12.425-5.563 12.425-12.425zM767.078 608.563c0-6.862-5.563-12.425-12.425-12.425s-12.425 5.563-12.425 12.425c0 6.862 5.563 12.425 12.425 12.425s12.425-5.563 12.425-12.425z" />
<glyph unicode="&#xe924;" glyph-name="soups-sides" d="M852.582 721.271c-1.159 0.494-2.506 0.78-3.921 0.78-2.828 0-5.388-1.146-7.241-2.999l-37.547-37.547-37.547 37.547c-1.884 1.78-4.432 2.874-7.236 2.874s-5.352-1.094-7.241-2.879l-37.542-37.542-37.547 37.547c-1.884 1.78-4.432 2.874-7.236 2.874s-5.352-1.094-7.241-2.879l-37.542-37.542-37.547 37.547c-1.884 1.78-4.432 2.874-7.236 2.874s-5.352-1.094-7.241-2.879l-37.542-37.542-37.547 37.547c-1.853 1.85-4.411 2.995-7.236 2.995-5.652 0-10.235-4.579-10.24-10.231v-154.761h-304.811c-5.655 0-10.24-4.585-10.24-10.24v-63.488c0-5.655 4.585-10.24 10.24-10.24h11.844l14.199-200.841c2.524-33.146 29.995-59.096 63.547-59.187h0.009l536.166 0.58c31.805 0.039 57.578 25.812 57.617 57.613v440.563c0 0.021 0 0.045 0 0.070 0 4.174-2.497 7.765-6.079 9.359zM185.583 536.576h293.717v-43.008h-293.717v43.008zM265.045 233.54v0c-22.79 0.028-41.458 17.638-43.17 39.994l-14.14 199.554h271.599v-201.83c0-0.060 0-0.13 0-0.2 0-14.205 5.165-27.204 13.72-37.221zM838.485 271.258c-0.039-20.495-16.642-37.098-37.133-37.137h-264.401c-20.509 0.019-37.132 16.63-37.171 37.133v415.679l27.307-27.307c1.884-1.78 4.432-2.874 7.236-2.874s5.352 1.094 7.241 2.879l37.542 37.542 37.547-37.547c1.868-1.954 4.496-3.169 7.407-3.169s5.539 1.215 7.403 3.165l37.55 37.551 37.547-37.547c1.884-1.78 4.432-2.874 7.236-2.874s5.352 1.094 7.241 2.879l37.542 37.542 37.547-37.547c1.884-1.78 4.432-2.874 7.236-2.874s5.352 1.094 7.241 2.879l27.302 27.302v-415.676z" />
<glyph unicode="&#xe925;" glyph-name="store-finder" d="M700.45 404.89l40.619-40.619c1.853-1.85 4.411-2.995 7.236-2.995s5.384 1.144 7.236 2.995l40.619 40.619c12.232 12.241 19.797 29.147 19.797 47.82 0 37.363-30.289 67.652-67.652 67.652s-67.652-30.289-67.652-67.652c0-18.673 7.565-35.579 19.798-47.82zM714.923 486.093c8.539 8.539 20.335 13.82 33.365 13.82 26.060 0 47.186-21.126 47.186-47.186 0-13.030-5.281-24.826-13.82-33.365l-33.382-33.382-33.348 33.382c-8.532 8.536-13.809 20.326-13.809 33.348 0 13.039 5.291 24.843 13.842 33.382zM762.881 467.284c8.398-8.398 8.679-21.732 0.628-29.784s-21.386-7.77-29.784 0.628c-8.398 8.398-8.679 21.732-0.628 29.784s21.386 7.77 29.784-0.628zM871.731 804.079c-1.524 0.95-3.375 1.513-5.356 1.513-1.79 0-3.473-0.459-4.936-1.266l-231.269-122.375-231.526 122.402c-1.385 0.745-3.031 1.183-4.779 1.183s-3.394-0.438-4.833-1.21l-236.284-124.901c-3.27-1.751-5.457-5.142-5.461-9.045v-569.686c0.006-5.651 4.589-10.229 10.24-10.229 1.748 0 3.394 0.438 4.833 1.21l231.472 122.375 231.526-122.402c1.385-0.745 3.031-1.183 4.779-1.183s3.394 0.438 4.833 1.21l236.25 124.901c3.27 1.751 5.457 5.142 5.461 9.045v569.686c0 0.001 0 0.003 0 0.005 0 3.701-1.963 6.943-4.904 8.742zM404.105 778.308l215.825-114.108v-546.509l-215.825 114.108v546.509zM167.765 664.201l215.825 114.108v-546.509l-215.825-114.108v546.509zM856.235 231.799l-215.825-114.108v546.509l215.825 114.108v-546.509z" />
<glyph unicode="&#xe926;" glyph-name="x-thick" d="M77.551 158.372l724.070 724.070 144.814-144.814-724.070-724.070-144.814 144.814zM77.551 737.628l144.814 144.814 724.070-724.070-144.814-144.814-724.070 724.070z" />
</font>
</defs>
</svg>
